<?xml version="1.0" standalone="no"?>
<!DOCTYPE svg PUBLIC "-//W3C//DTD SVG 1.1//EN" "http://www.w3.org/Graphics/SVG/1.1/DTD/svg11.dtd" >
<!--
2018-5-4: Created with FontForge (http://fontforge.org)
-->
<svg xmlns="http://www.w3.org/2000/svg" xmlns:xlink="http://www.w3.org/1999/xlink" version="1.1">
<metadata>
Created by FontForge 20160405 at Fri May  4 05:05:32 2018
 By Apache
Copyright (c) 2018, Apache
</metadata>
<defs>
<font id="Flaticon" horiz-adv-x="512" >
  <font-face 
    font-family="Flaticon"
    font-weight="400"
    font-stretch="normal"
    units-per-em="512"
    panose-1="2 0 5 3 0 0 0 0 0 0"
    ascent="448"
    descent="-64"
    bbox="-0.925781 -64.0166 512.009 448.012"
    underline-thickness="25.6"
    underline-position="-51.2"
    unicode-range="U+0020-F14D"
  />
    <missing-glyph />
    <glyph glyph-name="space" unicode=" " horiz-adv-x="200" 
 />
    <glyph glyph-name="uniF12C" unicode="&#xf12c;" 
d="M119.181 283.284c4.56152 0 8.25781 -3.69727 8.25781 -8.25781v-330.203c0 -4.5625 -3.69629 -8.25879 -8.25781 -8.25879h-102.785c-4.56152 0 -8.25781 3.69629 -8.25781 8.25879v330.203c0 4.56055 3.69629 8.25781 8.25781 8.25781h102.785zM67.8252 447.437
c37.3691 0 67.7725 -30.3926 67.7705 -67.751c0 -37.3721 -30.4014 -67.7783 -67.7705 -67.7783c-37.3994 0 -67.8252 30.4043 -67.8252 67.7783c0 37.3584 30.4258 67.751 67.8252 67.751zM380.621 291.491c115.77 0 131.379 -83.6855 131.379 -165.548v-181.122
c0 -4.56152 -3.69629 -8.25781 -8.25781 -8.25781h-102.599c-4.56152 0 -8.25781 3.69629 -8.25781 8.25781v160.543c0 44.9512 -3.32129 79.334 -45.1172 79.334c-38.377 0 -53.3311 -21.4482 -53.3311 -76.501v-163.374c0 -4.5625 -3.69629 -8.25879 -8.25781 -8.25879
h-102.56c-4.5625 0 -8.25879 3.69629 -8.25879 8.25879v330.203c0 4.56055 3.69629 8.25781 8.25879 8.25781h98.4336c4.5625 0 8.25879 -3.69727 8.25879 -8.25781v-21.4463c18.5098 20.165 49.0264 37.9111 90.3086 37.9111z" />
    <glyph glyph-name="uniF145" unicode="&#xf145;" 
d="M149.093 428.975l7.58594 -9.73438l7.60938 -9.71094l-116.819 -91.2715l-15.1953 19.4463c-16.752 21.4463 -13.0449 52.5781 8.4502 69.3545l39.0391 30.4893c21.3975 16.7275 52.5283 12.9473 69.3301 -8.57324zM33.6328 183.08
c0 122.799 99.5732 222.373 222.372 222.373c122.823 0 222.372 -99.5488 222.372 -222.373c0 -75.4092 -37.5557 -142.07 -94.9775 -182.271l47.7852 -47.5879l-17.2959 -17.2217l-51.8125 51.5898c-31.5273 -17.1475 -67.6504 -26.8818 -106.071 -26.8818
c-39.2119 0 -76.0508 10.1543 -108.023 27.9697l-52.8994 -52.6777l-17.2959 17.2217l49.0459 48.8223c-56.4336 40.3486 -93.1992 106.394 -93.1992 181.036zM280.713 183.277v0.000976562h-0.124023v148.051h-24.584v-148.052h-98.832v-24.8066h98.832v-0.0986328h24.584
v0.0986328h0.124023v24.8066zM472.15 327.993l-7.58594 -9.73535l-116.82 91.2959l15.1963 19.4443c16.7266 21.4463 47.835 25.3506 69.3311 8.57422l39.0137 -30.4893c21.3975 -16.7275 25.252 -47.835 8.4502 -69.3555z" />
    <glyph glyph-name="uniF104" unicode="&#xf104;" 
d="M294.609 122.002c5.44043 -7.28027 9.84766 -15.9912 13.2324 -26.1553c3.38672 -10.1572 5.07812 -21.0732 5.07812 -32.7715c0 -32.8203 -14.3574 -61.7451 -43.0762 -86.7715c-31.1748 -26.8701 -74.2549 -40.3027 -129.224 -40.3027
c-12.1035 0 -24.3594 1.02539 -36.7695 3.07617c-12.4092 2.05078 -24.9219 5.4873 -37.5352 10.3047c-12.6143 4.82715 -23.7451 10.7676 -33.3848 17.8486c-9.6416 7.07324 -17.5381 16.2051 -23.6895 27.3799c-6.15137 11.1816 -9.23047 23.6426 -9.23047 37.3848
c0 12.5137 3.79688 26.3574 11.3867 41.5381c6.56445 13.1299 16.4092 24.458 29.5371 34c13.125 9.53711 27.9971 16.8213 44.6123 21.8447c16.6162 5.02637 32.5117 8.71875 47.6895 11.0781c15.1826 2.36035 30.5635 3.74316 46.1523 4.16016
c-13.1318 17.0244 -19.6904 32.3066 -19.6904 45.8457c0 2.45996 0.203125 4.87109 0.615234 7.23145c0.407227 2.36133 0.920898 4.35938 1.53516 5.99805c0.616211 1.63867 1.43555 3.84863 2.46387 6.61719s1.74121 4.97363 2.15234 6.61328
c-8.20605 -1.02344 -15.3838 -1.53809 -21.5381 -1.53809c-30.5625 0 -56.7676 10.0537 -78.6113 30.1514c-21.8428 20.0986 -32.7686 45.3301 -32.7686 75.6895c0 28.7168 9.74512 54.4092 29.2295 77.0762c19.4873 22.6621 43.4873 37.1768 71.9961 43.5352
c19.2754 4.11035 38.457 6.16406 57.5312 6.16406h134.451l-41.5381 -24.3086h-41.5332c14.5645 -9.22852 25.8447 -22.1543 33.8447 -38.7705c7.99902 -16.6123 12.001 -33.9473 12.001 -51.998c0 -15.1787 -2.36035 -28.665 -7.07324 -40.459
c-4.72168 -11.7969 -10.4629 -21.2812 -17.2266 -28.4639c-6.77344 -7.17969 -13.54 -13.792 -20.3076 -19.8457s-12.5117 -12.3076 -17.2285 -18.7695s-7.07715 -13.3838 -7.07715 -20.7715c0 -5.33203 1.69336 -10.5625 5.07715 -15.6895
c3.38379 -5.12598 7.79492 -10.0518 13.2285 -14.7656c5.43457 -4.7207 11.4346 -9.64746 18 -14.7744c6.56055 -5.12695 13.126 -10.8213 19.6904 -17.0762c6.56445 -6.24707 12.5645 -13.0186 17.9971 -20.3057zM175.998 233.84
c19.8984 0 34.3057 6.20508 43.2314 18.6133c8.92285 12.4102 13.3838 28.8789 13.3838 49.3936c0 12.3066 -1.69336 25.3857 -5.07715 39.2305c-3.38379 13.8486 -8.20703 27.2295 -14.459 40.1514c-6.25879 12.9229 -14.873 23.5889 -25.8477 31.999
c-10.9736 8.41113 -23.2295 12.6133 -36.7686 12.6133c-19.0762 0 -33.8467 -7.07715 -44.3057 -21.2314c-10.4619 -14.1543 -15.6934 -31.0771 -15.6934 -50.7676c0 -9.64258 1.17871 -19.7979 3.53906 -30.4609c2.36133 -10.6689 6.00098 -21.334 10.9229 -31.999
c4.92383 -10.668 10.668 -20.2568 17.2285 -28.7686c6.56348 -8.5127 14.5625 -15.4355 24 -20.7705s19.3848 -8.00293 29.8457 -8.00293zM261.07 2.7832c5.64258 9.63574 8.46387 20.918 8.45898 33.8359c0 4.31152 -0.460938 8.45996 -1.38281 12.4688
c-0.918945 3.99805 -1.89551 7.68945 -2.91699 11.0752c-1.0293 3.38477 -2.82129 6.9209 -5.38672 10.6211c-2.56445 3.6875 -4.7207 6.81543 -6.46191 9.37793c-1.74316 2.56348 -4.46387 5.58789 -8.15332 9.07617c-3.69434 3.48535 -6.51562 6.10059 -8.45898 7.84473
c-1.94824 1.74316 -5.23047 4.35547 -9.84473 7.84473c-4.61523 3.48828 -7.79688 5.84668 -9.53711 7.07227c-1.74512 1.23047 -5.12793 3.5918 -10.1553 7.08008c-5.02734 3.48926 -8.15234 5.63574 -9.38477 6.46191
c-3.48535 0.405273 -8.61426 0.611328 -15.3857 0.611328c-11.0752 0 -21.9492 -0.710938 -32.6133 -2.15039c-10.6641 -1.43359 -21.7402 -3.99316 -33.2275 -7.69336c-11.4883 -3.68359 -21.5381 -8.4043 -30.1533 -14.1504
c-8.61328 -5.73828 -15.6904 -13.4316 -21.2324 -23.0713c-5.53906 -9.64453 -8.30664 -20.6172 -8.30664 -32.9238c0 -13.9512 3.64062 -26.4092 10.9219 -37.3848c7.28125 -10.9746 16.8203 -19.5947 28.6143 -25.8447c11.7939 -6.25488 24.1543 -10.9277 37.0752 -14
c12.9199 -3.0752 25.9463 -4.61719 39.0752 -4.61719c12.1035 0 23.6406 1.2793 34.6152 3.84961c10.9746 2.56641 21.2812 6.56543 30.9219 12.0049c9.64355 5.43262 17.2832 12.9668 22.9189 22.6113zM433.228 369.233h78.7607v-39.3867h-78.7607v-78.7666h-39.3887
v78.7666h-78.7686v39.3867h78.7686v78.7666h39.3887v-78.7666z" />
    <glyph glyph-name="uniF105" unicode="&#xf105;" 
d="M424.023 320.568c0.444336 -1.37207 8.33398 -23.6729 8.33301 -30.0381v-24.1191c0 -58.7119 -52.0117 -118.33 -84.3242 -177.491c-3.17773 -5.92285 -10.1318 -12.2891 -13.7715 -18.6553c-5.46191 -9.56152 -11.7949 -19.5723 -17.25 -29.5898
c-20.0176 -34.1328 -40.4277 -69.6338 -60.9121 -104.674c-33.2197 53.6943 -66.751 107.412 -99.0645 162.019c-30.0361 50.9668 -70.2529 105.135 -76.6309 156.102c-0.446289 4.09766 -0.760742 12.2881 -0.760742 13.2002v21.8496
c11.3779 106.945 96.5986 158.829 173.975 158.829c57.7998 0 129.384 -28.2168 162.146 -106.951c2.7373 -6.37207 6.43848 -13.6504 8.26074 -20.4805zM255.033 210.884c36.4111 0 66.5342 29.1221 66.5342 65.5322c0 36.4111 -28.1611 65.542 -64.5723 65.542
c-29.5762 0 -63.5732 -18.208 -63.5732 -58.2471v-14.1084c0 -0.917969 -0.147461 -10.9375 1.68262 -15.9375c12.2891 -31.4082 37.1846 -42.7812 59.9287 -42.7812z" />
    <glyph glyph-name="uniF135" unicode="&#xf135;" 
d="M305.971 192.01l195.741 -195.744c13.7139 -13.7129 13.7139 -36.1934 0 -49.9775c-13.7822 -13.7139 -36.2646 -13.7139 -49.9775 0l-195.744 195.743l-195.674 -195.743c-13.7822 -13.7139 -36.1924 -13.7139 -49.9775 0c-13.7852 13.7822 -13.7852 36.2646 0 49.9775
l195.674 195.744l-195.674 195.674c-13.7852 13.7822 -13.7832 36.1924 0 49.9775c13.7822 13.7852 36.1924 13.7852 49.9775 0l195.677 -195.674l195.744 195.674c13.7129 13.7852 36.1924 13.7852 49.9775 0c13.7129 -13.7822 13.7129 -36.1924 0 -49.9775z" />
    <glyph glyph-name="uniF12F" unicode="&#xf12f;" 
d="M437.22 394.792c44.5781 -24.7217 74.7803 -72.1699 74.7803 -126.694c0 -15.5957 -2.56738 -30.5918 -7.16992 -44.6025c-24.8545 -111.57 -248.786 -252.275 -248.786 -252.275s-224.08 140.708 -248.9 252.275c-4.60254 14.0107 -7.14355 28.9873 -7.14355 44.6025
c0 54.5449 30.2021 102.008 74.7773 126.694c20.7764 11.4199 44.5088 17.9883 69.8154 17.9883c44.8164 0 84.8604 -20.3955 111.451 -52.377c26.4658 31.9814 66.5469 52.377 111.303 52.377c25.3672 0 49.1436 -6.56836 69.873 -17.9883z" />
    <glyph glyph-name="uniF122" unicode="&#xf122;" 
d="M474.644 373.73c24.0898 -27.3359 37.3564 -63.9434 37.3564 -103.081c0 -42.6035 -16.6328 -82.2275 -52.3447 -124.7c-31.917 -37.9609 -77.834 -77.0889 -131.002 -122.396c-19.8164 -16.8867 -40.3057 -34.3457 -62.1182 -53.4307l-0.655273 -0.574219
c-2.82812 -2.47461 -6.35352 -3.71289 -9.87988 -3.71289s-7.05176 1.2373 -9.87988 3.71289l-0.655273 0.574219c-21.8125 19.085 -42.3018 36.5449 -62.1152 53.4287c-53.1709 45.3096 -99.0879 84.4375 -131.005 122.397
c-35.7119 42.4717 -52.3447 82.0967 -52.3447 124.7c0 39.1377 13.2666 75.7451 37.3555 103.079c25.2539 28.6543 60.2861 44.4355 98.6445 44.4355c53.9482 0 88.1025 -32.2197 107.255 -59.25c4.96973 -7.01367 9.19629 -14.0469 12.7451 -20.665
c3.54883 6.61816 7.77637 13.6514 12.7451 20.665c19.1523 27.0303 53.3066 59.25 107.255 59.25c38.3584 0 73.3906 -15.7803 98.6436 -44.4336zM309.193 46.3857c104.062 88.6748 172.807 147.256 172.807 224.264c0 31.8291 -10.6055 61.3936 -29.8633 83.2441
c-19.4766 22.0996 -46.5156 34.2705 -76.1367 34.2705c-41.1289 0 -67.7158 -25.3379 -82.7764 -46.5928c-13.5088 -19.0654 -20.5576 -38.2832 -22.9619 -45.6602c-2.01074 -6.1748 -7.76758 -10.3545 -14.2617 -10.3545s-12.251 4.17969 -14.2617 10.3545
c-2.4043 7.37695 -9.45312 26.5947 -22.9619 45.6592c-15.0605 21.2559 -41.6475 46.5938 -82.7764 46.5938c-29.6211 0 -56.6602 -12.1709 -76.1377 -34.2705c-19.2568 -21.8506 -29.8623 -51.415 -29.8623 -83.2441c0 -77.0078 68.7451 -135.589 172.804 -224.262
c17.083 -14.5566 34.6621 -29.5371 53.1963 -45.6475c18.5352 16.1123 36.1133 31.0918 53.1934 45.6455z" />
    <glyph glyph-name="uniF128" unicode="&#xf128;" 
d="M256 311.467c-37.6406 0 -68.2666 30.626 -68.2666 68.2666s30.626 68.2666 68.2666 68.2666s68.2666 -30.626 68.2666 -68.2666s-30.626 -68.2666 -68.2666 -68.2666zM256 72.5332c37.6406 0 68.2666 -30.626 68.2666 -68.2666s-30.626 -68.2666 -68.2666 -68.2666
s-68.2666 30.626 -68.2666 68.2666s30.626 68.2666 68.2666 68.2666zM256 260.267c37.6406 0 68.2666 -30.626 68.2666 -68.2666s-30.626 -68.2666 -68.2666 -68.2666s-68.2666 30.626 -68.2666 68.2666s30.626 68.2666 68.2666 68.2666z" />
    <glyph glyph-name="uniF13F" unicode="&#xf13f;" 
d="M503.23 373.356c5.70215 -5.8252 8.76953 -13.0283 8.76953 -21.2949v-320.124c0 -8.2666 -2.94531 -15.5938 -8.76953 -21.541c-5.69629 -5.82324 -13.0225 -8.76758 -21.541 -8.76758h-451.384c-8.5127 0 -15.8398 2.94434 -21.541 8.76758
c-5.8252 5.94727 -8.76465 13.2744 -8.76465 21.541v320.124c0 8.2666 3.06738 15.4697 8.76367 21.2949c5.8252 5.94727 13.0283 9.01562 21.541 9.01562h451.385c8.51855 0 15.7168 -3.06836 21.541 -9.01562zM484.196 31.9375h-0.000976562v195.885h-456.643v-195.885
c0 -1.00293 1.50195 -2.50488 2.75195 -2.50488h451.385c1.75391 0 2.50684 0.75293 2.50684 2.50488zM484.196 298.709v53.3525c0 1.75195 -0.75293 2.50586 -2.50684 2.50586h-451.384c-1.25098 0 -2.75195 -1.50195 -2.75195 -2.50586v-53.3525h456.643zM367.716 115.099
v60.3691h60.1182v-60.3691h-60.1182zM97.9414 147.916c-7.76953 0 -13.7812 6.01172 -13.7812 13.7764s6.01172 13.7764 13.7812 13.7764h215.422c7.76465 0 13.7764 -6.01172 13.7764 -13.7764s-6.01172 -13.7764 -13.7764 -13.7764h-215.422zM97.9414 85.7939
c-7.76953 0 -13.7812 6.01172 -13.7812 13.7754c0 7.76465 6.01172 13.7764 13.7812 13.7764h171.336c7.76367 0 13.7754 -6.01172 13.7754 -13.7764c0 -7.76367 -6.01172 -13.7754 -13.7754 -13.7754h-171.336z" />
    <glyph glyph-name="uniF149" unicode="&#xf149;" 
d="M452.267 371.2c32.9717 -0.0429688 59.6904 -26.7617 59.7334 -59.7334v-290.134c-0.0429688 -32.9717 -26.7617 -59.6904 -59.7334 -59.7334h-392.533c-32.9717 0.0429688 -59.6904 26.7617 -59.7334 59.7334v290.134
c0.0429688 32.9717 26.7617 59.6904 59.7334 59.7334h68.2666v42.666c0 4.71289 3.82031 8.53418 8.5332 8.53418s8.5332 -3.82129 8.5332 -8.53418v-42.666h221.867v42.666c0 4.71289 3.82031 8.53418 8.5332 8.53418s8.5332 -3.82129 8.5332 -8.53418v-42.666h68.2666z
M494.934 21.333v213.334h-477.867v-213.334c0.0283203 -23.5518 19.1152 -42.6387 42.667 -42.666h392.533c23.5518 0.0273438 42.6387 19.1143 42.667 42.666zM494.934 251.733v59.7334c-0.0283203 23.5518 -19.1152 42.6387 -42.667 42.667h-68.2666v-42.667
c0 -4.71289 -3.82031 -8.5332 -8.5332 -8.5332s-8.5332 3.82031 -8.5332 8.5332v42.667h-221.867v-42.667c0 -4.71289 -3.82031 -8.5332 -8.5332 -8.5332s-8.5332 3.82031 -8.5332 8.5332v42.667h-68.2666c-23.5518 -0.0283203 -42.6387 -19.1152 -42.667 -42.667v-59.7334
h477.867z" />
    <glyph glyph-name="uniF100" unicode="&#xf100;" 
d="M0 -41.1426v356.571h512v-356.571h-512zM27.4287 333.714c-5.04688 0 -9.14258 4.09668 -9.14258 9.14355s4.0957 9.14258 9.14258 9.14258h457.143c5.04688 0 9.14258 -4.0957 9.14258 -9.14258s-4.0957 -9.14355 -9.14258 -9.14355h-457.143zM54.8574 370.286
c-5.04688 0 -9.14355 4.0957 -9.14355 9.14258s4.09668 9.14258 9.14355 9.14258h402.285c5.04688 0 9.14355 -4.0957 9.14355 -9.14258s-4.09668 -9.14258 -9.14355 -9.14258h-402.285zM82.2861 406.857c-5.04688 0 -9.14355 4.0957 -9.14355 9.14258
s4.09668 9.14258 9.14355 9.14258h347.428c5.04688 0 9.14355 -4.0957 9.14355 -9.14258s-4.09668 -9.14258 -9.14355 -9.14258h-347.428z" />
    <glyph glyph-name="uniF148" unicode="&#xf148;" 
d="M474.19 448c20.8896 0 37.8057 -16.4248 37.8057 -36.6836v-438.617c0 -20.2559 -16.916 -36.6992 -37.8057 -36.6992h-436.358c-20.8887 0 -37.8301 16.4326 -37.8301 36.6992v438.617c0 20.2646 16.9355 36.6836 37.8301 36.6836h436.358zM155.225 19.4209v231.162
h-77.3584v-231.162h77.3584zM116.553 282.163c26.9521 0 43.7354 17.7373 43.7354 39.9531c-0.513672 22.6631 -16.7891 39.9189 -43.2471 39.9189c-26.4561 0 -43.7666 -17.2607 -43.7666 -39.9189c0 -22.2119 16.8164 -39.9531 42.7578 -39.9531h0.520508z
M434.079 19.4209v132.549c0 71.0361 -38.165 104.056 -89.0654 104.056c-41.0664 0 -59.4111 -22.4639 -69.6777 -38.2109v32.7725h-77.3311c1.01172 -21.6807 0 -231.161 0 -231.161h77.3193v129.117c0 6.88965 0.511719 13.7891 2.57812 18.7227
c5.57715 13.8115 18.2773 28.1172 39.6719 28.1172c27.9668 0 39.1719 -21.2051 39.1719 -52.2822v-123.68h77.333zM274.837 217.08c0.131836 0.216797 0.316406 0.477539 0.499023 0.730469v-0.730469h-0.499023z" />
    <glyph glyph-name="uniF13E" unicode="&#xf13e;" 
d="M225.416 -50.0361c-8.37891 8.38379 -12.5684 18.4375 -12.5684 30.165h85.75c0 -11.7275 -4.33105 -21.6484 -12.5674 -30.165c-8.24707 -8.52051 -18.1562 -12.8457 -30.1699 -12.8457c-11.7275 0 -21.7861 4.18652 -30.4443 12.8457zM509.205 19.5176
c1.78809 -2.63281 2.79492 -5.30371 2.79395 -8.37891c0 -2.51465 -0.560547 -5.03027 -1.6748 -7.54492c-3.07324 -5.30371 -7.54297 -8.09766 -13.6865 -8.09766h-480.996c-6.14258 0 -10.6416 2.77148 -13.6875 8.09766
c-1.42383 2.49707 -1.9541 4.75098 -1.9541 7.26562c0 3.0752 1.17383 5.82617 3.07422 8.6582c19.8857 29.5742 34.7891 61.2158 44.9727 94.4141c10.207 33.2812 19.5332 81.2861 27.6494 144.129c4.73145 36.5938 19.5459 67.6045 36.0332 87.4297
c8.37305 10.0654 17.8477 19.0391 28.4902 26.8154c21.4756 15.6846 38.8281 22.9062 58.9395 28.7705c2.79004 13.1279 9.49316 24.0215 20.1123 32.6787c10.6133 8.65918 22.9004 13.1279 36.5879 13.1279c13.9678 0 26.2012 -4.53516 36.874 -13.1279
c10.8398 -8.72363 17.5967 -19.5508 20.3857 -32.6787c20.1113 -5.86426 37.3691 -13.2178 58.6602 -28.7705c10.8281 -7.90723 20.2373 -16.8877 28.4902 -26.8154c16.6074 -19.9619 31.5879 -50.835 36.3135 -87.4297c8.12207 -62.8428 17.1924 -110.931 27.376 -144.129
c10.207 -33.2812 25.2422 -64.9238 45.2461 -94.4141zM43.5781 26.502v0.000976562h425.13c-16.7627 29.0488 -29.6094 60.6152 -38.5488 94.4131c-8.9375 33.7988 -17.0781 78.2061 -24.5801 133.236c-4.22559 30.999 -16.3105 56.8906 -30.7246 73.7422
c-7.0918 8.28906 -15.4395 15.5342 -24.8613 22.0654c-18.7891 13.0205 -35.5273 19.0391 -54.7461 23.7402c-7.04785 1.72168 -12.0127 7.81836 -12.0127 14.8027v0.55957c0 14.8018 -12.0127 26.8154 -27.375 26.8154c-14.8018 0 -27.3691 -11.9893 -27.3691 -26.8154
v-0.55957c0 -6.98438 -4.50488 -13.2471 -11.4531 -14.8027c-19.3135 -4.31348 -35.7832 -10.9873 -55.0312 -23.7402c-27.124 -17.9785 -48.8271 -48.0117 -55.584 -95.8076c-7.77148 -54.9951 -15.7686 -99.6875 -24.5752 -133.516
c-8.7959 -33.7705 -21.5127 -65.3652 -38.2686 -94.1348z" />
    <glyph glyph-name="uniF132" unicode="&#xf132;" 
d="M256 -64c-141.16 0 -256 114.84 -256 255.988c0 141.16 114.84 256.012 256 256.012s256 -114.84 256 -256.012s-114.84 -255.988 -256 -255.988zM256 430.639c-131.576 0 -238.639 -107.062 -238.639 -238.65s107.062 -238.65 238.639 -238.65
s238.639 107.062 238.639 238.65s-107.062 238.65 -238.639 238.65zM216.138 125.749c-2.22168 0 -4.44434 0.833008 -6.13379 2.53418l-50.1514 50.082c-3.3916 3.3916 -3.3916 8.88965 -0.0117188 12.2803c3.3916 3.40332 8.90039 3.3916 12.2803 0.0117188
l44.0166 -43.959l123.765 123.764c3.39062 3.3916 8.88867 3.3916 12.2803 0c3.39062 -3.39062 3.39062 -8.88867 0 -12.2803l-129.91 -129.898c-1.68945 -1.70117 -3.91211 -2.53418 -6.13477 -2.53418z" />
    <glyph glyph-name="uniF133" unicode="&#xf133;" 
d="M386.344 448l-76.5059 -220.86h108.634l-299.835 -291.14l83.4883 220.879h-108.615z" />
    <glyph glyph-name="uniF140" unicode="&#xf140;" 
d="M499.001 162.31c7.17578 0 13.0215 -4.5166 12.999 -10.1104v-168.007c0 -5.59473 -5.84668 -10.1113 -13.0225 -10.1113h-485.955c-7.15332 0 -13.0225 4.5166 -13.0225 10.1113v168.007c0 5.59375 5.84668 10.1104 13.0225 10.1104h86.6631v-24.3711
c0 -15.6133 12.6328 -28.2451 28.2686 -28.2451c15.5898 0 28.2227 12.6094 28.2227 28.2451v24.3711h196.712v-24.3711c0 -15.6133 12.6328 -28.2451 28.2451 -28.2451c15.6133 0 28.2461 12.6094 28.2461 28.2451v24.3711h89.6211zM499.001 296.752
c7.17578 0 13.0215 -5.04395 12.9531 -11.2568v-92.9453c0 -6.21289 -5.84668 -11.2334 -13.0225 -11.2334h-89.6201v10.1338c0 15.5898 -12.6104 28.2451 -28.2461 28.2451c-15.5898 0 -28.2461 -12.6553 -28.2461 -28.2451v-10.1338h-196.688v10.1338
c0 15.5898 -12.6094 28.2451 -28.2227 28.2451s-28.2686 -12.6553 -28.2686 -28.2451v-10.1338h-86.6172c-7.15332 0 -13.0225 5.02051 -13.0225 11.2334v92.9453c0 6.21289 5.84668 11.2803 13.0225 11.2803h97.3008v52.7998c0 33.2666 27.0771 60.3438 60.3662 60.3438
h170.735c33.2666 0 60.3438 -27.0537 60.3438 -60.3438v-52.8232h97.2324zM170.689 370.737c-11.6699 0 -21.1846 -9.49219 -21.1846 -21.1846v-48.6045h213.059v48.6045c0 11.6699 -9.49121 21.1846 -21.1611 21.1846h-170.713z" />
    <glyph glyph-name="uniF12E" unicode="&#xf12e;" 
d="M355.866 448l89.3506 -97.0869v-383.509c0 -17.3252 -14.0762 -31.4033 -31.3936 -31.4033h-315.648c-17.3027 0 -31.3916 14.0781 -31.3916 31.4033v449.197c0 17.2988 14.0889 31.3984 31.3916 31.3984h257.691zM363.275 401.016v-42.5635h39.1641zM418.852 -32.5967
v364.696h-68.7598c-7.27441 0 -13.1963 5.89355 -13.1963 13.1631v76.3574h-238.721c-2.77441 0 -5.02539 -2.24707 -5.02539 -5.01855v-449.198c0 -2.76562 2.25098 -5.03613 5.02539 -5.03613h315.634c2.77832 0 5.04297 2.27051 5.04297 5.03613zM139.661 307.767
h223.896c5.4541 0 9.87793 -4.42383 9.87793 -9.87793s-4.42383 -9.87793 -9.87793 -9.87793h-223.896c-5.45312 0 -9.87891 4.42383 -9.87891 9.87793c0 5.45312 4.42578 9.87793 9.87891 9.87793zM373.435 231.509c0 -5.45312 -4.42383 -9.87793 -9.87793 -9.87793
h-223.896c-5.45312 0 -9.87891 4.42383 -9.87891 9.87793s4.42578 9.87793 9.87891 9.87793h223.896c5.4541 0 9.87793 -4.4248 9.87793 -9.87793zM373.435 167.303c0 -5.45508 -4.42383 -9.87891 -9.87793 -9.87891h-223.896c-5.45312 0 -9.87891 4.42383 -9.87891 9.87891
c0 5.4541 4.42578 9.87793 9.87891 9.87793h223.896c5.4541 0 9.87793 -4.42383 9.87793 -9.87793zM373.435 102.002c0 -5.4541 -4.42383 -9.87793 -9.87793 -9.87793h-223.896c-5.45312 0 -9.87891 4.42383 -9.87891 9.87793c0 5.45508 4.42578 9.87891 9.87891 9.87891
h223.896c5.4541 0 9.87793 -4.42383 9.87793 -9.87891z" />
    <glyph glyph-name="uniF139" unicode="&#xf139;" 
d="M150.071 91.8584l307.654 307.654l54.2744 -54.2764l-360.746 -360.749l-23.3281 23.3281l-0.146484 -0.147461l-127.779 127.778l53.2412 53.2412z" />
    <glyph glyph-name="uniF11B" unicode="&#xf11b;" 
d="M351.652 -33.4385l-214.325 213.929c-6.35059 6.34961 -6.35059 16.6699 0 23.0195l214.325 213.929c6.35059 6.35059 16.6699 6.35059 23.0205 0s6.35059 -16.6699 0 -23.0195l-202.419 -202.419l202.419 -202.419c6.35059 -6.34961 6.35059 -16.6689 0 -23.0195
c-3.1748 -3.17578 -7.14453 -4.7627 -11.5098 -4.7627c-4.36621 0 -8.33496 1.58691 -11.5107 4.7627z" />
    <glyph glyph-name="uniF101" unicode="&#xf101;" 
d="M452 408c33.084 0 60 -26.916 60 -60v-352c0 -33.084 -26.916 -60 -60 -60h-392c-33.084 0 -60 26.916 -60 60v352c0 33.084 26.916 60 60 60h24v40h40v-40h264v40h40v-40h24zM472 -4v264h-432v-264c0 -11.0283 8.97168 -20 20 -20h392c11.0283 0 20 8.97168 20 20z
M472 300v48c0 11.0283 -8.97168 20 -20 20h-24v-40h-40v40h-264v-40h-40v40h-24c-11.0283 0 -20 -8.97168 -20 -20v-48h432zM76 178v40h40v-40h-40zM156 178v40h40v-40h-40zM236 178v40h40v-40h-40zM316 178v40h40v-40h-40zM396 178v40h40v-40h-40zM76 98v40h40v-40h-40z
M156 98v40h40v-40h-40zM236 98v40h40v-40h-40zM316 98v40h40v-40h-40zM76 18v40h40v-40h-40zM156 18v40h40v-40h-40zM236 18v40h40v-40h-40zM316 18v40h40v-40h-40zM396 98v40h40v-40h-40z" />
    <glyph glyph-name="uniF109" unicode="&#xf109;" 
d="M260.267 448c92.2715 -3.63379 165.471 -79.0107 166.401 -171.35c-0.250977 -40.9883 -15.2441 -80.5176 -42.2402 -111.36c-3.24316 -3.75391 -6.57031 -7.25293 -9.9834 -10.8369s-8.5332 -8.5332 -11.7764 -13.0557
c-6.77051 -8.06445 -12.9316 -16.6211 -18.4316 -25.6006c-6.66797 -10.709 -12.0527 -22.166 -16.043 -34.1328c-2.63672 -8.65723 -3.95898 -17.6602 -3.92578 -26.709c-0.276367 -9.22461 -7.83789 -16.5586 -17.0664 -16.5547h-102.4
c-9.22949 -0.00390625 -16.79 7.33008 -17.0664 16.5547c0.0410156 9.07812 -1.28223 18.1104 -3.92578 26.7949c-3.99121 11.9668 -9.37695 23.4229 -16.043 34.1328c-5.50195 8.97852 -11.6631 17.5342 -18.4316 25.6006
c-3.66895 4.43652 -7.59473 8.5332 -11.7764 13.0557c-4.18066 4.52148 -6.74023 7.08203 -9.9834 10.8369c-26.9775 30.8213 -41.9688 70.3164 -42.2402 111.275c0.928711 92.3379 74.1279 167.715 166.4 171.349h8.53223zM371.883 176.384
c24.1973 27.8135 37.584 63.4014 37.7168 100.267c-1.0498 84.5049 -69.1006 152.858 -153.6 154.282c-84.499 -1.42383 -152.55 -69.7773 -153.601 -154.282c0.248047 -36.8809 13.7568 -72.4395 38.0586 -100.182c3.07227 -3.49805 6.22852 -6.91211 9.47168 -10.3252
c3.24316 -3.41211 8.5332 -9.04492 12.5439 -13.9082c7.31055 -8.7666 13.9561 -18.0654 19.8838 -27.8193c7.32715 -11.7559 13.2559 -24.3281 17.6641 -37.4609c3.14844 -10.2002 4.75879 -20.8135 4.77832 -31.4883h102.401
c-0.0195312 10.6445 1.5625 21.2305 4.69238 31.4033c4.40625 13.1328 10.334 25.7061 17.6641 37.4609c6.06152 9.76953 12.8506 19.0703 20.3096 27.8193c4.01074 4.94824 8.5332 9.47168 12.5439 13.9082c4.01074 4.4375 6.39941 6.74121 9.47168 10.3252zM204.8 55.4668
h102.401v-34.1328c0 -9.42578 -7.6416 -17.0674 -17.0674 -17.0674h-68.2666c-9.42578 0 -17.0674 7.6416 -17.0674 17.0674v34.1328zM290.133 21.333v17.0674h-68.2666v-17.0674h68.2666zM221.867 21.333h68.2666v-34.1328c0 -9.42578 -7.64062 -17.0674 -17.0664 -17.0674
h-34.1338c-9.42578 0 -17.0664 7.6416 -17.0664 17.0674v34.1328zM273.067 -12.7998v17.0664h-34.1338v-17.0664h34.1338zM230.4 -12.7998h51.2002v-34.1328c0 -9.42676 -7.64062 -17.0674 -17.0664 -17.0674h-17.0674c-9.42578 0 -17.0664 7.64062 -17.0664 17.0674
v34.1328zM264.533 -46.9326v17.0664h-17.0674v-17.0664h17.0674zM243.285 115.712c2.5918 -1.53711 4.18066 -4.32617 4.18066 -7.33887v-52.9072c0 -4.71191 -3.81934 -8.5332 -8.5332 -8.5332c-4.71289 0 -8.53223 3.82031 -8.53223 8.5332v48.5557
c-8.5332 5.97363 -25.6006 21.1621 -25.6006 42.667v19.7119c0 4.71191 3.82031 8.53223 8.5332 8.53223c4.71191 0 8.5332 -3.81934 8.5332 -8.53223v-20.0537c0 -17.4941 21.248 -30.4639 21.4189 -30.6348zM298.667 174.933c4.71191 0 8.5332 -3.81934 8.5332 -8.53223
v-20.0537c0 -21.334 -17.0674 -36.4375 -25.6006 -42.667v-48.2139c0 -4.71191 -3.81934 -8.5332 -8.53223 -8.5332c-4.71191 0 -8.5332 3.82031 -8.5332 8.5332v53.0771c0 3.0127 1.58887 5.80176 4.18066 7.33887c0 0 21.4189 13.0566 21.4189 30.6348v19.8838
c0 4.71191 3.82031 8.53223 8.5332 8.53223z" />
    <glyph glyph-name="uniF146" unicode="&#xf146;" 
d="M232.727 302.545c0 16.0664 13.0244 29.0918 29.0908 29.0918c16.0674 0 29.0918 -13.0254 29.0918 -29.0918s-13.0244 -29.0908 -29.0918 -29.0908c-16.0664 0 -29.0908 13.0244 -29.0908 29.0908zM325.817 64v-23.2725h-127.999v23.2725h34.9092v162.909h-34.9092
v23.2725h93.0918v-186.182h34.9072zM512 192c0 -141.382 -114.618 -256 -256 -256s-256 114.618 -256 256s114.618 256 256 256s256 -114.618 256 -256zM23.2725 192c0 -128.535 104.192 -232.728 232.728 -232.728s232.728 104.192 232.728 232.728
s-104.192 232.728 -232.728 232.728s-232.728 -104.192 -232.728 -232.728z" />
    <glyph glyph-name="uniF106" unicode="&#xf106;" 
d="M491.563 291.655c13.5977 -31.6875 20.4365 -64.665 20.4365 -99.374c0 -34.7158 -6.84375 -67.9736 -20.4355 -99.6621c-27 -62.9277 -72.8701 -108.983 -136.329 -136.049c-31.7129 -13.5205 -64.9463 -20.4297 -99.6562 -20.4297s-67.6865 6.83789 -99.375 20.4297
c-62.9268 27 -109.007 73.0146 -136.049 136.049c-13.5508 31.5869 -20.1553 64.9463 -20.1553 99.6621c0 34.709 6.60449 67.7939 20.1553 99.374c27.042 63.0342 73.1162 108.774 136.049 135.768c31.6826 13.5928 64.666 20.4365 99.375 20.4365
c34.7148 0 67.9434 -6.90918 99.6611 -20.4365c63.459 -27.0645 109.329 -72.834 136.323 -135.768zM450.697 79.1816c20.2158 34.6807 30.2246 72.5068 30.2246 113.1c0 40.5908 -10.0752 78.1016 -30.2305 112.53c-20.1553 34.4346 -47.627 61.8037 -82.3008 82.0195
c-34.4648 20.0957 -72.2197 30.2363 -112.812 30.2363c-40.585 0 -78.1016 -10.0811 -112.524 -30.2363c-34.4287 -20.1562 -61.9658 -47.5264 -82.0195 -82.0205c-19.9834 -34.3682 -29.9561 -71.9385 -29.9561 -112.53c0 -30.5166 5.75684 -59.959 17.6357 -87.6211
c11.9141 -27.7637 27.8467 -51.9277 47.8652 -71.9453c20.0176 -20.0127 43.9482 -35.833 71.6641 -47.8662c27.7168 -12.04 56.8301 -17.916 87.3408 -17.916c40.5859 0 78.3477 10.1348 112.812 30.2305c34.6738 20.2148 62.2051 47.5557 82.3008 82.0195zM271.816 194.52
l78.3838 -78.9443c6.01367 -6.05566 6.4375 -15.3965 0 -21.834c-5.59668 -5.60156 -15.9521 -5.60156 -21.5527 0l-83.7051 83.6982c-3.35645 3.3623 -4.75977 7.56152 -4.19824 12.6016c0 0.835938 -0.561523 1.95898 -0.561523 2.24023v147.246
c0 8.67676 7.28027 15.6758 15.3955 15.6758c8.67871 0 16.2383 -6.99902 16.2383 -15.6758v-145.008z" />
    <glyph glyph-name="uniF108" unicode="&#xf108;" 
d="M470.71 361.29c22.7676 0 41.29 -18.5225 41.291 -41.29v-256c0 -4.55957 -3.7002 -8.25879 -8.25781 -8.25879c-4.55957 0 -8.25879 3.7002 -8.25879 8.25879v256.002c0 13.6631 -11.1113 24.7734 -24.7744 24.7734h-276.644
c-3.43945 0 -6.52344 2.13867 -7.7334 5.35938l-10.377 27.6729h-144.769c-8.08887 0 -14.6709 -6.58203 -14.6709 -14.6719v-299.136c0 -4.55957 -3.69922 -8.25879 -8.25781 -8.25879c-4.55957 0 -8.25879 3.7002 -8.25879 8.25879v299.136
c0 17.1973 13.9883 31.1875 31.1865 31.1875h150.491c3.43945 0 6.52441 -2.14062 7.7334 -5.36035l10.377 -27.6729h270.922zM503.743 262.193c4.55762 0 8.25684 -3.69922 8.25781 -8.25879v-256c0 -4.55957 -3.7002 -8.25879 -8.25781 -8.25879h-495.484
c-4.55957 0 -8.25879 3.7002 -8.25879 8.25879v256c0 4.55957 3.69922 8.25879 8.25879 8.25879h495.484zM495.484 6.19238v239.485h-478.969v-239.485h478.969z" />
    <glyph glyph-name="uniF14C" unicode="&#xf14c;" 
d="M167.009 366.568c7.21777 7.21777 18.582 7.21777 25.7998 0c6.97461 -6.97461 6.97461 -18.582 0 -25.54l-130.82 -130.82h431.69c10.0625 0 18.3213 -7.99902 18.3213 -18.0615c0 -10.0635 -8.25879 -18.3223 -18.3213 -18.3223h-431.69l130.82 -130.576
c6.97461 -7.21875 6.97461 -18.8418 0 -25.7998c-7.21777 -7.21875 -18.582 -7.21875 -25.7998 0l-161.79 161.79c-6.97461 6.97461 -6.97461 18.582 0 25.54z" />
    <glyph glyph-name="uniF136" unicode="&#xf136;" 
d="M512 350.738c-14.0459 -21.0518 -31.8975 -39.5439 -52.5332 -54.2627l0.351562 -13.5977c0 -138.789 -105.612 -298.823 -298.823 -298.823c-59.3174 0 -114.507 17.4043 -160.994 47.2549c8.22168 -0.927734 16.5732 -1.43945 25.0508 -1.43945
c49.207 0 94.5107 16.7324 130.439 44.8877c-45.9434 0.832031 -84.7207 31.1943 -98.0938 72.9463c6.43066 -1.2793 12.9902 -1.95117 19.7725 -1.95117c9.59863 0 18.876 1.31152 27.6748 3.67871c-48.0225 9.66309 -84.2402 52.1191 -84.2402 102.989v1.31152
c14.1729 -7.87012 30.3623 -12.6055 47.5752 -13.1807c-28.1553 18.8115 -46.7119 50.9648 -46.7119 87.4072c0 19.2607 5.15137 37.3047 14.2061 52.79c51.7979 -63.541 129.191 -105.356 216.471 -109.74c-1.79199 7.67871 -2.7207 15.71 -2.7207 23.9316
c0 57.9727 47.0312 105.004 105.036 105.004c30.2354 0 57.4941 -12.7334 76.6582 -33.1777c23.9316 4.73535 46.3926 13.4707 66.7402 25.5c-7.87012 -24.4756 -24.4746 -45.0791 -46.167 -58.0693c21.2441 2.52832 41.4639 8.19141 60.3086 16.541z" />
    <glyph glyph-name="uniF120" unicode="&#xf120;" 
d="M422.397 448c28.2773 0 51.2021 -22.9941 51.2021 -51.2002v-409.6c0 -28.2764 -22.9375 -51.2002 -51.2021 -51.2002h-332.795c-28.2773 0 -51.2021 22.9941 -51.2021 51.2002v409.6c0 28.2764 22.9375 51.2002 51.2021 51.2002h332.795zM422.397 -12.7998
c-0.00390625 0 -0.00292969 136.533 0.00195312 409.6c0 -0.0244141 -110.933 -0.0244141 -332.797 0c0.00390625 0 0.00292969 -136.533 -0.00195312 -409.6c0 0.0244141 110.933 0.0244141 332.797 0zM74.5771 243.2v51.2002h386.223v-51.2002h-386.223zM166.4 -44.583
v324.208h51.2002v-324.208h-51.2002zM294.399 -44.583v324.208h51.2002v-324.208h-51.2002zM64 38.3994v51.2002h281.6v-51.2002h-281.6zM64 140.8v51.2012h371.199v-51.2012h-371.199z" />
    <glyph glyph-name="uniF123" unicode="&#xf123;" 
d="M501.579 39.1865c-5.75293 0 -10.4189 4.66602 -10.4189 10.4199v266.412c0 61.2842 -49.8584 111.144 -111.144 111.144h-2.45605c-61.2842 0 -111.144 -49.8594 -111.144 -111.144v-233.419c0 -5.75293 -4.66602 -10.4189 -10.4189 -10.4189
s-10.4189 4.66602 -10.4189 10.4189v233.419c0 61.2842 -49.8584 111.144 -111.144 111.144h-2.45508c-61.2832 0 -111.143 -49.8594 -111.143 -111.144v-303.017c5.49414 8.58887 12.0205 16.5908 19.5068 23.8389c24.7002 23.9141 57.2422 37.083 91.6357 37.083h2.45508
c34.3936 0 66.9375 -13.1689 91.6357 -37.083c13.0137 -12.5986 23.0977 -27.4873 29.9268 -43.7666c6.82812 16.2793 16.9141 31.167 29.9277 43.7666c24.6982 23.9141 57.2422 37.083 91.6348 37.083h2.45605c34.3936 0 66.9375 -13.1689 91.6357 -37.083
c24.0762 -23.3125 38.2324 -54.4131 40.0107 -87.7891c0.21875 -0.842773 0.334961 -1.72461 0.334961 -2.63281c0 -5.75293 -4.66602 -10.4189 -10.4189 -10.4189h-0.227539c-5.60547 0 -10.207 4.43457 -10.4121 10.0391
c-2.19141 60.0273 -50.9131 107.047 -110.923 107.047h-2.45605c-60.0078 0 -108.731 -47.0215 -110.925 -107.047c-0.204102 -5.60254 -4.80469 -10.0391 -10.4121 -10.0391h-0.225586h-0.225586c-5.60547 0 -10.207 4.43457 -10.4121 10.0391
c-2.19141 60.0273 -50.9141 107.047 -110.925 107.047h-2.45508c-60.0107 0 -108.732 -47.0215 -110.924 -107.047c-0.205078 -5.60254 -4.80469 -10.0391 -10.4121 -10.0391h-0.225586c-5.75293 0 -10.4189 4.66602 -10.4189 10.4189v369.6
c0 72.7734 59.2061 131.981 131.98 131.981h2.45508c54.5557 0 101.483 -33.2734 121.562 -80.5898c20.0811 47.3164 67.0088 80.5898 121.562 80.5898h2.45605c72.7754 0 131.981 -59.208 131.981 -131.981v-266.412c0 -5.75391 -4.66602 -10.4199 -10.4189 -10.4199z" />
    <glyph glyph-name="uniF125" unicode="&#xf125;" 
d="M430.773 103.089l-161.851 -161.868c-7.22168 -6.97754 -18.835 -6.97754 -25.8125 0l-161.867 161.868c-6.97852 7.2207 -6.97852 18.5898 0 25.8115c7.2207 6.97754 18.5898 6.97754 25.8115 0l130.623 -130.883v431.912c0 10.0684 8.2627 18.0703 18.3301 18.0703
c10.0684 0 18.0703 -8.00195 18.0703 -18.0703v-431.912l130.883 130.883c6.96191 6.97754 18.5908 6.97754 25.8125 0c6.97754 -7.22168 6.97754 -18.5908 0 -25.8115z" />
    <glyph glyph-name="uniF10F" unicode="&#xf10f;" 
d="M502.391 308.072l-246.391 -140.77l-246.391 140.77l246.391 139.928zM256 143.079l166.139 94.9189l80.252 -45.5771l-246.391 -140.77l-246.391 140.77l80.2627 45.5771zM256 27.4277l166.139 94.9189l80.252 -45.5781l-246.391 -140.769l-246.391 140.769
l80.2627 45.5781z" />
    <glyph glyph-name="uniF107" unicode="&#xf107;" 
d="M256.004 147.757l-232.907 204.524h465.806zM163.223 192.066l-163.223 -143.337v286.674zM184.381 173.485l71.623 -62.8916l71.6084 62.8916l161.438 -141.767h-466.1zM348.77 192.06l163.23 143.344v-286.674z" />
    <glyph glyph-name="uniF11A" unicode="&#xf11a;" 
d="M26.8164 61.6318c-6.35254 -6.28809 -16.6328 -6.28809 -22.9844 0c-6.34375 6.2959 -6.34375 16.4961 0 22.792l239.856 237.88c4.55176 4.50391 11.3271 5.9043 17.3271 3.64844c2.10449 -0.799805 4.45605 -2.2002 6.05664 -3.7998l239.84 -237.88
c6.34375 -6.29688 6.34375 -16.4961 0 -22.792c-3.16797 -3.15234 -7.32812 -4.7207 -11.4883 -4.7207c-4.15137 0 -8.31152 1.56836 -11.4883 4.7207l-228.64 226.775z" />
    <glyph glyph-name="uniF127" unicode="&#xf127;" 
d="M512 192c0 -74.9385 -32.3682 -142.447 -83.8467 -189.291l0.250977 -0.213867l-8.51758 -7.1123c-0.847656 -0.716797 -1.77832 -1.32227 -2.64355 -2.02051c-3.90137 -3.17383 -7.91309 -6.20898 -12 -9.15039c-1.70312 -1.22852 -3.38867 -2.4668 -5.11035 -3.63965
c-4.78516 -3.27734 -9.70996 -6.3584 -14.7178 -9.30957c-1.35938 -0.800781 -2.71875 -1.58203 -4.08691 -2.35547c-5.50195 -3.09961 -11.1152 -6.01367 -16.8584 -8.71289c-0.708008 -0.334961 -1.4248 -0.642578 -2.13184 -0.967773
c-19.1953 -8.80664 -39.6572 -15.2949 -61.04 -19.1309c-0.577148 -0.111328 -1.16309 -0.213867 -1.74023 -0.316406c-6.6748 -1.14453 -13.4336 -2.04785 -20.2754 -2.67188c-0.866211 -0.0742188 -1.73145 -0.121094 -2.59766 -0.195312
c-6.83301 -0.548828 -13.7119 -0.912109 -20.6846 -0.912109c-7.03809 0 -13.9824 0.363281 -20.8525 0.930664c-0.84668 0.0751953 -1.68457 0.121094 -2.52246 0.195312c-6.89844 0.624023 -13.7129 1.55469 -20.4521 2.71875
c-0.577148 0.102539 -1.14551 0.205078 -1.71289 0.306641c-21.709 3.91992 -42.4678 10.5566 -61.915 19.5957c-0.4375 0.205078 -0.883789 0.391602 -1.32129 0.59668c-5.96777 2.81055 -11.7949 5.87402 -17.501 9.12207
c-1.14551 0.652344 -2.29004 1.30371 -3.42578 1.97363c-5.21387 3.08203 -10.3145 6.33008 -15.2861 9.75586c-1.53613 1.06152 -3.04395 2.15039 -4.55176 3.24023c-4.6543 3.36035 -9.22559 6.83301 -13.6377 10.4912
c-0.540039 0.446289 -1.12695 0.819336 -1.66699 1.27539l-8.30371 7l0.242188 0.213867c-51.0322 46.8252 -83.0928 114.027 -83.0928 188.584c0 141.153 114.847 256 256 256s256 -114.847 256 -256zM18.6182 192c0 -70.0234 30.4971 -133.046 78.8945 -176.538
c2.32715 1.66699 4.6543 3.15625 7 4.43164l73.6074 40.1504c6.6748 3.64844 10.8174 10.6309 10.8174 18.2266v26.9404c-5.73438 7.57812 -21.2529 29.9385 -28.793 59.4766c-7.87598 6.45117 -12.4746 16.0117 -12.4746 26.2607v33.001
c0 8.07031 2.96973 15.8994 8.25781 22.0527v43.4453c-0.484375 4.82227 -2.19727 32.0977 17.5283 54.5889c17.1572 19.5771 44.9258 29.4912 82.5439 29.4912s65.3867 -9.91406 82.5439 -29.501c19.7256 -22.4902 18.0127 -49.7471 17.5283 -54.5879v-43.4453
c5.29688 -6.15332 8.25781 -13.9824 8.25781 -22.0537v-33.001c0 -13.2656 -7.61523 -25.0137 -19.4092 -30.6172c-5.96777 -17.25 -14.1504 -33.2803 -24.3535 -47.6904c-1.99121 -2.80176 -3.91895 -5.35254 -5.74316 -7.60547v-27.5273
c0 -7.90332 4.39355 -15.0156 11.4688 -18.5527l78.8203 -39.4053c2.82031 -1.41504 5.57617 -3.10938 8.3125 -4.99902c49.0029 43.5107 79.9561 106.924 79.9561 177.459c0 130.896 -106.486 237.382 -237.382 237.382s-237.382 -106.486 -237.382 -237.382z" />
    <glyph glyph-name="uniF13C" unicode="&#xf13c;" 
d="M510.391 220.426c2.16797 -19.3896 2.14062 -38.9688 -0.114258 -58.2188c-0.889648 -7.49316 -7.64355 -13.1465 -14.9834 -12.5508l-3.16602 0.0820312c-22.6299 0 -43.6689 -13.9404 -52.3711 -34.7031c-9.25586 -22.0566 -3.47461 -47.7285 14.3438 -63.8643
c5.58691 -5.05566 6.25391 -13.5898 1.5293 -19.4561c-12.1748 -15.1631 -26.1006 -28.9365 -41.415 -40.9463c-5.89551 -4.55469 -14.2588 -3.88965 -19.3203 1.61621c-15.2305 16.7314 -42.333 23.0293 -63.4004 14.4248
c-21.7939 -8.92383 -35.8848 -30.8672 -35.0264 -54.5918c0.25 -7.44922 -5.25 -13.8418 -12.6738 -14.6611c-9.36719 -1.04199 -18.7354 -1.55664 -28.1025 -1.55664c-9.86816 0 -19.709 0.569336 -29.4912 1.71094c-7.47754 0.860352 -13.0078 7.41992 -12.5635 14.9541
c1.36035 23.9883 -12.5391 46.3203 -34.6357 55.5635c-21.0957 8.85449 -48.5029 2.58496 -63.8193 -14.3564c-5.08398 -5.60254 -13.6191 -6.26953 -19.4844 -1.54297c-14.9541 12.0361 -28.6035 25.8223 -40.499 40.9727
c-4.61523 5.85059 -3.91992 14.2598 1.55664 19.291c17.5107 16.0508 23.2637 41.4834 14.3145 63.3027c-8.97852 21.8486 -30.3809 35.6504 -52.6738 35.0811c-7.33594 0 -15.9824 5.36035 -16.7871 12.5879c-2.16797 19.3896 -2.14062 38.9863 0.111328 58.2197
c0.887695 7.37988 6.66895 12.8281 14.7861 12.5674c25.0146 0 46.8652 13.5615 55.7021 34.6045c9.25684 22.0713 3.50391 47.7393 -14.3135 63.875c-5.55957 5.05762 -6.25488 13.5781 -1.52832 19.457c12.1182 15.1221 26.0723 28.9072 41.415 40.9443
c5.86328 4.57031 14.2861 3.89258 19.3184 -1.625c15.2295 -16.748 42.4463 -22.9756 63.3721 -14.4277c21.8223 8.9375 35.8887 30.8818 35.0547 54.6201c-0.25 7.43555 5.25391 13.8281 12.6758 14.6475c19.1797 2.12793 38.4697 2.05957 57.5918 -0.152344
c7.50781 -0.874023 13.0117 -7.42188 12.5645 -14.9521c-1.36035 -23.9746 12.5381 -46.3086 34.5791 -55.5811c21.1797 -8.83691 48.5889 -2.55664 63.8486 14.3428c5.05957 5.60254 13.6211 6.25488 19.4561 1.57227c14.9004 -11.9375 28.5479 -25.71 40.5557 -40.958
c4.61523 -5.85059 3.94727 -14.2725 -1.55664 -19.3037c-17.4844 -16.0381 -23.2354 -41.4854 -14.3164 -63.3047c8.73047 -21.3037 29.5488 -35.0791 53.0088 -35.0791c7.25684 0 15.6484 -5.4082 16.458 -12.6055zM256.405 106.067
c47.0859 0 85.3877 38.3027 85.3877 85.3906c0 47.0859 -38.3018 85.3906 -85.3877 85.3906c-47.0889 0 -85.3906 -38.3047 -85.3906 -85.3906c0 -47.0879 38.3018 -85.3906 85.3906 -85.3906z" />
    <glyph glyph-name="uniF10B" unicode="&#xf10b;" 
d="M486.461 6.08594h-342.372c-14.1113 0 -25.5479 11.4365 -25.5479 25.5469c0 14.1113 11.4365 25.5479 25.5479 25.5479h342.363c14.1113 0 25.5479 -11.4365 25.5479 -25.5479c0 -14.1104 -11.4287 -25.5469 -25.5391 -25.5469zM486.461 166.448h-342.372
c-14.1113 0 -25.5479 11.4365 -25.5479 25.5479c0 14.1104 11.4365 25.5469 25.5479 25.5469h342.363c14.1113 0 25.5479 -11.4365 25.5479 -25.5469c0.00878906 -14.1113 -11.4287 -25.5479 -25.5391 -25.5479zM486.461 326.811h-342.372
c-14.1113 0 -25.5479 11.4365 -25.5479 25.5479c0 14.1104 11.4365 25.5479 25.5479 25.5479h342.363c14.1113 0 25.5479 -11.4375 25.5479 -25.5479c0 -14.1113 -11.4287 -25.5479 -25.5391 -25.5479zM0 350.383c0 18.9492 15.3613 34.3105 34.3105 34.3105
s34.3105 -15.3613 34.3105 -34.3105s-15.3613 -34.3105 -34.3105 -34.3105s-34.3105 15.3613 -34.3105 34.3105zM0 191.996c0 18.9492 15.3613 34.3105 34.3105 34.3105s34.3105 -15.3613 34.3105 -34.3105s-15.3613 -34.3105 -34.3105 -34.3105
s-34.3105 15.3613 -34.3105 34.3105zM0 33.6094c0 18.9492 15.3613 34.3096 34.3105 34.3096s34.3105 -15.3604 34.3105 -34.3096s-15.3613 -34.3105 -34.3105 -34.3105s-34.3105 15.3613 -34.3105 34.3105z" />
    <glyph glyph-name="uniF119" unicode="&#xf119;" 
d="M112.981 -59.4385c-1.25684 0 -2.5293 0.310547 -3.67676 0.930664c-2.51367 1.34961 -4.08105 3.9873 -4.08105 6.82715v110.529c-67.9102 35.3125 -105.224 97.1406 -105.224 174.607c0 119.716 110.049 209.982 256 209.982s256 -90.2666 256 -209.982
c0 -119.699 -110.049 -209.966 -256 -209.966c-4.79395 0 -9.49512 0.263672 -14.2119 0.511719l-0.310547 0.015625l-124.229 -82.168c-1.28809 -0.853516 -2.77734 -1.28809 -4.2666 -1.28809zM256 427.924c-137.092 0 -240.484 -83.6113 -240.484 -194.468
c0 -51.5566 17.501 -121.669 100.895 -162.894c2.6377 -1.30273 4.31348 -4.00293 4.31348 -6.9502v-100.864l114.331 75.6211c1.39648 0.930664 3.08691 1.47363 4.68555 1.27246l2.88574 -0.155273c4.4375 -0.248047 8.85938 -0.481445 13.3584 -0.481445
c137.092 0 240.485 83.5957 240.485 194.451c0 110.856 -103.378 194.468 -240.47 194.468z" />
    <glyph glyph-name="uniF11F" unicode="&#xf11f;" 
d="M452.256 264.658c34.9512 -7.96484 59.7451 -39.0459 59.7441 -74.8926c0 -42.4229 -34.3906 -76.8125 -76.8135 -76.8115c-2.23535 0 -4.44629 0.0859375 -6.60547 0.264648c-0.62793 -0.173828 -1.27734 -0.261719 -1.92871 -0.264648h-136.862
c-4.71289 0 -8.53418 3.82227 -8.53418 8.53516s3.82129 8.53418 8.53418 8.53418h134.097c1.15039 0.447266 2.39453 0.603516 3.61914 0.453125c2.54883 -0.305664 5.11426 -0.456055 7.68066 -0.453125c30.1045 0.0722656 55.4521 22.5312 59.1484 52.4062
c4.05176 32.7461 -19.208 62.5752 -51.9531 66.627c-4.57715 0.541016 -7.89746 4.61719 -7.50195 9.20898c0.230469 2.74805 0.306641 5.48828 0.306641 8.3125c0.0341797 45.2871 -23.8594 87.2227 -62.8359 110.281c-60.8525 35.999 -139.366 15.8535 -175.366 -44.999
c-2.16992 -3.64648 -6.69043 -5.14453 -10.6084 -3.5166c-10.3398 4.28613 -21.4199 6.49902 -32.6123 6.51367c-47.1963 0.0605469 -85.5068 -38.1514 -85.5674 -85.3486c0 -2.82422 0.162109 -5.64941 0.392578 -8.39746
c0.391602 -4.53809 -2.85059 -8.58496 -7.36523 -9.19238c-25.0977 -3.60352 -43.7803 -25.0293 -43.9307 -50.3838c-0.166992 -28.2812 22.623 -51.3428 50.9033 -51.5117h153.061c4.71387 0 8.53516 -3.82129 8.53516 -8.53418s-3.82129 -8.53516 -8.53516 -8.53516
h-153.061c-31.0605 0.0449219 -58.1777 21.0488 -65.9873 51.1113c-9.48047 36.4961 12.4209 73.7695 48.918 83.25v2.19336c0.0126953 10.9961 1.79395 21.918 5.27539 32.3477c17.9307 53.7148 76.0107 82.7246 129.726 64.7939
c26.875 40.6592 72.3691 65.1094 121.107 65.0859c80.1309 -0.0371094 145.06 -65.0264 145.021 -145.158v-1.91992zM322.342 59.2461c3.30664 3.19531 8.55176 3.19531 11.8584 0c3.39062 -3.27539 3.48438 -8.67773 0.208984 -12.0684l-72.416 -72.416
c-3.33301 -3.33203 -8.73535 -3.33203 -12.0684 0l-72.417 72.416c-3.19336 3.30859 -3.19336 8.55176 0 11.8594c3.27539 3.38965 8.67773 3.48438 12.0684 0.208984l57.8477 -57.8477v239.576c0 4.71289 3.82227 8.53418 8.53516 8.53418
s8.53418 -3.82129 8.53418 -8.53418v-239.576z" />
    <glyph glyph-name="uniF141" unicode="&#xf141;" 
d="M331.102 448c1.17383 0 2.2207 -0.777344 2.5332 -1.90918c0.327148 -1.13086 -0.137695 -2.3418 -1.13184 -2.97168l-34.9043 -21.9434c-0.412109 -0.270508 -0.90918 -0.407227 -1.40625 -0.407227h-40.5205c15.3457 -12.6855 47.2568 -39.0762 47.2568 -90.1455
c0 -50.7939 -29.8018 -74.2764 -56.0977 -94.9883l-0.862305 -0.873047c-8.26953 -8.22754 -17.6396 -17.5547 -17.6396 -31.6836c0 -14.3721 9.37012 -22.1299 16.8945 -28.3633l24.3496 -18.9414c28.8662 -24.3076 56.0605 -47.2031 56.0498 -93.582
c0 -62.7021 -60.2061 -126.181 -175.267 -126.181c-98.9541 0 -143.244 47.9697 -143.244 95.4961c0 11.9453 3.70117 53.1367 51.3281 81.4521c40.3232 24.7832 95.5273 28.5693 125.187 30.6006l2.06738 0.142578l-1.16309 1.49609
c-9.24805 11.8184 -18.8135 24.0488 -18.8135 43.8779c0 10.1836 2.7334 16.709 5.62012 23.625l0.994141 2.41699c-6.74707 -0.629883 -14.3926 -1.33789 -21.2988 -1.33789c-71.8232 0 -110.582 54.0244 -110.582 104.86c0 32.9961 15.9111 66.4248 42.5713 89.4268
c33.8994 28.0039 71.5645 39.9326 125.975 39.9326h122.104zM183.029 -36.0117c60.4229 0 97.9658 27.6338 97.9707 72.124c0 34.9258 -23.5938 53.2637 -72.6689 88.1885c-5.30859 0.666992 -8.65039 0.666992 -15.2969 0.666992
c-0.391602 0 -39.6318 -0.507812 -70.0312 -10.7393c-37.96 -13.7539 -57.2344 -36.8877 -57.2344 -68.7246c0 -48.7588 47.124 -81.5156 117.261 -81.5156zM182.368 232.493c15.9053 0 34.1113 7.50391 45.3057 18.6768c16.6455 16.7354 16.6455 40.832 16.6455 48.7529
c0 50.207 -29.8857 122.85 -83.9316 122.85c-17.6504 0 -35.9678 -8.64551 -46.665 -22.0293c-9.85547 -12.209 -14.6465 -28.3789 -14.6465 -49.4453c0 -41.4287 24.4297 -118.805 83.292 -118.805zM502.239 208.873c1.46387 0 2.64355 -1.17871 2.64355 -2.64355v-28.0361
c0 -1.46387 -1.18457 -2.64355 -2.64355 -2.64355h-64.3418v-64.5371c0 -1.4541 -1.18945 -2.64355 -2.64355 -2.64355h-27.6758c-1.45996 0 -2.64355 1.18945 -2.64355 2.64355v64.5264h-64.0186c-1.45996 0 -2.64453 1.19043 -2.64453 2.64453v28.0459
c0 1.45898 1.18457 2.64355 2.64453 2.64355h64.0186v64.1143c0 1.45898 1.18359 2.64355 2.64355 2.64355h27.6758c1.4541 0 2.64355 -1.18457 2.64355 -2.64355v-64.1143h64.3418z" />
    <glyph glyph-name="uniF13A" unicode="&#xf13a;" 
d="M256 403.2l256 -166.4l-19.2002 -25.5996l-236.8 153.6l-236.8 -153.6l-19.2002 25.5996l128 83.2002v96h64v-54.4004zM256 320l192 -128v-224h-160v96h-64v-96h-160v224z" />
    <glyph glyph-name="uniF134" unicode="&#xf134;" 
d="M256.006 448c-141.379 0 -256.006 -114.611 -256.006 -256c0 -104.822 63.0381 -194.878 153.237 -234.471c-0.722656 17.8789 -0.128906 39.3369 4.4541 58.7832c4.91992 20.7871 32.9424 139.494 32.9424 139.494s-8.18262 16.3379 -8.18262 40.5039
c0 37.9336 21.9912 66.2686 49.3721 66.2686c23.2861 0 34.5342 -17.4902 34.5342 -38.4316c0 -23.4082 -14.9297 -58.4189 -22.6045 -90.8496c-6.41504 -27.1611 13.6143 -49.3057 40.4072 -49.3057c48.5068 0 81.1729 62.2959 81.1729 136.105
c0 56.1055 -37.791 98.0996 -106.522 98.0996c-77.6543 0 -126.034 -57.9121 -126.034 -122.594c0 -22.3027 6.5752 -38.0371 16.876 -50.2119c4.73535 -5.59668 5.39648 -7.84473 3.68164 -14.2646c-1.22852 -4.70996 -4.0498 -16.0508 -5.2168 -20.5508
c-1.70508 -6.48242 -6.95898 -8.80176 -12.8154 -6.40039c-35.7686 14.6025 -52.4287 53.7656 -52.4287 97.7979c0 72.7197 61.333 159.918 182.968 159.918c97.7412 0 162.058 -70.7227 162.058 -146.647c0 -100.424 -55.8281 -175.446 -138.133 -175.446
c-27.6328 0 -53.6377 14.9395 -62.54 31.9072c0 0 -14.8643 -58.9824 -18.0127 -70.3691c-5.42676 -19.7383 -16.0508 -39.4707 -25.7695 -54.8408c23.0352 -6.79492 47.3555 -10.4961 72.5605 -10.4961c141.373 0 255.995 114.616 255.995 256
c0.000976562 141.39 -114.62 256.001 -255.993 256.001z" />
    <glyph glyph-name="uniF112" unicode="&#xf112;" 
d="M439.696 202.039c3.29199 -2.2793 5.2666 -6.02246 5.2666 -10.0332s-1.96289 -7.75293 -5.2666 -10.0332l-353.532 -243.814c-2.08398 -1.42676 -4.49805 -2.1582 -6.92383 -2.1582c-1.93848 0 -3.88867 0.462891 -5.66895 1.38965
c-4.01074 2.10938 -6.52246 6.2666 -6.52246 10.8008v487.631c0 4.53516 2.51172 8.67969 6.52246 10.7891c3.99902 2.08496 8.85059 1.81641 12.5928 -0.755859z" />
    <glyph glyph-name="uniF144" unicode="&#xf144;" 
d="M512 192c0 -141.382 -114.618 -256 -256 -256s-256 114.618 -256 256s114.618 256 256 256s256 -114.618 256 -256zM261.817 331.637c-16.0576 0 -29.0898 -13.0332 -29.0898 -29.0918c0 -16.0576 13.0322 -29.0898 29.0898 -29.0898
c16.0586 0 29.0918 13.0322 29.0918 29.0898c0 16.0586 -13.0332 29.0918 -29.0918 29.0918zM197.818 64v-23.2725h128v23.2725h-34.9082v186.182h-93.0918v-23.2725h34.9092v-162.909h-34.9092z" />
    <glyph glyph-name="uniF143" unicode="&#xf143;" 
d="M137.275 448c8.19629 0 14.8408 -6.64453 14.8408 -14.8408v-118.725c0 -8.19629 -6.64453 -14.8408 -14.8408 -14.8408h-118.725c-8.19727 0 -14.8408 6.64453 -14.8408 14.8408v118.725c0 8.19629 6.64355 14.8408 14.8408 14.8408h118.725zM315.362 448
c8.19629 0 14.8408 -6.64453 14.8408 -14.8408v-118.725c0 -8.19629 -6.64453 -14.8408 -14.8408 -14.8408h-118.725c-8.19629 0 -14.8408 6.64453 -14.8408 14.8408v118.725c0 8.19629 6.64453 14.8408 14.8408 14.8408h118.725zM137.275 269.913
c8.19629 0 14.8408 -6.64453 14.8408 -14.8408v-118.725c0 -8.19629 -6.64453 -14.8408 -14.8408 -14.8408h-118.725c-8.19727 0 -14.8408 6.64453 -14.8408 14.8408v118.725c0 8.19629 6.64355 14.8408 14.8408 14.8408h118.725zM315.362 269.913
c8.19629 0 14.8408 -6.64453 14.8408 -14.8408v-118.725c0 -8.19629 -6.64453 -14.8408 -14.8408 -14.8408h-118.725c-8.19629 0 -14.8408 6.64453 -14.8408 14.8408v118.725c0 8.19629 6.64453 14.8408 14.8408 14.8408h118.725zM493.449 448
c8.19531 0 14.8408 -6.64453 14.8408 -14.8408v-118.725c0 -8.19629 -6.64355 -14.8408 -14.8408 -14.8408h-118.725c-8.19629 0 -14.8408 6.64453 -14.8408 14.8408v118.725c0 8.19629 6.64453 14.8408 14.8408 14.8408h118.725zM493.449 269.913
c8.19531 0 14.8408 -6.64453 14.8408 -14.8408v-118.725c0 -8.19629 -6.64355 -14.8408 -14.8408 -14.8408h-118.725c-8.19629 0 -14.8408 6.64453 -14.8408 14.8408v118.725c0 8.19629 6.64453 14.8408 14.8408 14.8408h118.725zM137.275 84.4062
c8.19629 0 14.8408 -6.64453 14.8408 -14.8408v-118.725c0 -8.19629 -6.64453 -14.8408 -14.8408 -14.8408h-118.725c-8.19727 0 -14.8408 6.64453 -14.8408 14.8408v118.725c0 8.19629 6.64355 14.8408 14.8408 14.8408h118.725zM315.362 84.4062
c8.19629 0 14.8408 -6.64453 14.8408 -14.8408v-118.725c0 -8.19629 -6.64453 -14.8408 -14.8408 -14.8408h-118.725c-8.19629 0 -14.8408 6.64453 -14.8408 14.8408v118.725c0 8.19629 6.64453 14.8408 14.8408 14.8408h118.725zM493.449 84.4062
c8.19531 0 14.8408 -6.64453 14.8408 -14.8408v-118.725c0 -8.19629 -6.64355 -14.8408 -14.8408 -14.8408h-118.725c-8.19629 0 -14.8408 6.64453 -14.8408 14.8408v118.725c0 8.19629 6.64453 14.8408 14.8408 14.8408h118.725z" />
    <glyph glyph-name="uniF137" unicode="&#xf137;" 
d="M384 448c36.3594 0 65.8281 -11.1836 65.8281 -47.543v-416.914c0 -36.3594 -29.4688 -47.543 -65.8281 -47.543c-36.3662 0 -65.8281 11.1836 -65.8281 47.543v416.914c0 36.3594 29.4619 47.543 65.8281 47.543zM128 448c36.3594 0 65.8281 -11.1836 65.8281 -47.543
v-416.914c0 -36.3594 -29.4688 -47.543 -65.8281 -47.543c-36.3662 0 -65.8281 11.1836 -65.8281 47.543v416.914c0 36.3594 29.4619 47.543 65.8281 47.543z" />
    <glyph glyph-name="uniF10D" unicode="&#xf10d;" 
d="M68.2666 260.267c37.6406 0 68.2666 -30.626 68.2666 -68.2666s-30.626 -68.2666 -68.2666 -68.2666s-68.2666 30.626 -68.2666 68.2666s30.626 68.2666 68.2666 68.2666zM443.733 260.267c37.6406 0 68.2666 -30.626 68.2666 -68.2666
s-30.626 -68.2666 -68.2666 -68.2666s-68.2666 30.626 -68.2666 68.2666s30.626 68.2666 68.2666 68.2666zM256 260.267c37.6406 0 68.2666 -30.626 68.2666 -68.2666s-30.626 -68.2666 -68.2666 -68.2666s-68.2666 30.626 -68.2666 68.2666s30.626 68.2666 68.2666 68.2666
z" />
    <glyph glyph-name="uniF11D" unicode="&#xf11d;" 
d="M481.438 310.673c6.35059 -6.35059 6.35059 -16.6699 -0.396484 -23.0205l-213.929 -213.929c-3.17578 -3.1748 -7.54102 -4.7627 -11.5098 -4.7627c-4.36621 0 -8.33496 1.58789 -11.5107 4.7627l-213.929 213.929c-6.35059 6.35059 -6.35059 16.6699 0 23.0205
s16.6699 6.35059 23.0205 0l202.815 -202.815l202.419 202.815c6.34961 6.35059 16.6689 6.35059 23.0195 0z" />
    <glyph glyph-name="uniF129" unicode="&#xf129;" 
d="M238.934 193.032c0 9.42578 7.64062 17.0674 17.0664 17.0674s17.0664 -7.6416 17.0664 -17.0674s-7.64062 -17.0664 -17.0664 -17.0664s-17.0664 7.64062 -17.0664 17.0664zM256 448c141.158 0 256 -114.842 256 -256s-114.842 -256 -256 -256s-256 114.842 -256 256
s114.842 256 256 256zM247.467 380.766v-8.5332c0 -4.71875 3.82324 -8.5332 8.5332 -8.5332s8.5332 3.81445 8.5332 8.5332v8.5332c0 4.71875 -3.82324 8.5332 -8.5332 8.5332s-8.5332 -3.81445 -8.5332 -8.5332zM76.7998 184.499c4.71094 0 8.5332 3.81445 8.5332 8.5332
c0 4.71973 -3.82227 8.5332 -8.5332 8.5332h-8.5332c-4.70996 0 -8.5332 -3.81348 -8.5332 -8.5332c0 -4.71875 3.82324 -8.5332 8.5332 -8.5332h8.5332zM135.321 60.2793c3.33691 3.33691 3.33691 8.72949 0 12.0664c-3.33594 3.33691 -8.72949 3.33691 -12.0654 0
l-6.0332 -6.0332c-3.33691 -3.33691 -3.33691 -8.72949 0 -12.0664c1.66406 -1.66406 3.84863 -2.5 6.0332 -2.5s4.36914 0.835938 6.03223 2.5zM135.321 313.72c3.33691 3.32812 3.33691 8.72949 0 12.0654l-6.0332 6.0332c-3.33594 3.33691 -8.72949 3.33691 -12.0654 0
c-3.33691 -3.33594 -3.33691 -8.72949 0 -12.0654l6.0332 -6.0332c1.66406 -1.66406 3.84766 -2.50098 6.03223 -2.50098s4.36914 0.836914 6.0332 2.50098zM264.533 5.29883v8.53418c0 4.71875 -3.82324 8.5332 -8.5332 8.5332s-8.5332 -3.81445 -8.5332 -8.5332v-8.53418
c0 -4.71875 3.82324 -8.5332 8.5332 -8.5332s8.5332 3.81445 8.5332 8.5332zM256 158.899c18.8242 0 34.1338 15.3086 34.1338 34.1328c0 15.8643 -10.9229 29.1074 -25.6006 32.9219v86.5449c0 4.71875 -3.82324 8.5332 -8.5332 8.5332s-8.5332 -3.81445 -8.5332 -8.5332
v-86.5449c-11.9385 -3.10645 -21.2822 -12.4502 -24.3887 -24.3887h-60.9443c-4.71094 0 -8.53418 -3.81348 -8.53418 -8.5332c0 -4.71875 3.82324 -8.5332 8.53418 -8.5332h60.9443c3.81445 -14.6768 17.0674 -25.5996 32.9219 -25.5996zM394.777 54.2461
c3.33691 3.33691 3.33691 8.73828 0 12.0664l-6.0332 6.0332c-3.33594 3.33691 -8.72949 3.33691 -12.0654 0c-3.33691 -3.33691 -3.33691 -8.72949 0 -12.0664l6.0332 -6.0332c1.66309 -1.66406 3.84766 -2.5 6.03223 -2.5s4.36914 0.835938 6.0332 2.5zM394.777 319.753
c3.33691 3.32715 3.33691 8.72949 0 12.0654c-3.33594 3.33691 -8.72949 3.33691 -12.0654 0l-6.0332 -6.0332c-3.33691 -3.33594 -3.33691 -8.72949 0 -12.0654c1.66406 -1.66406 3.84863 -2.50098 6.0332 -2.50098s4.36816 0.836914 6.03223 2.50098zM443.733 184.499
c4.70996 0 8.5332 3.81445 8.5332 8.5332c0 4.71973 -3.82324 8.5332 -8.5332 8.5332h-8.5332c-4.71094 0 -8.5332 -3.81348 -8.5332 -8.5332c0 -4.71875 3.82227 -8.5332 8.5332 -8.5332h8.5332z" />
    <glyph glyph-name="uniF138" unicode="&#xf138;" 
d="M153.6 38.4004c28.1602 0 51.2002 -23.04 51.2002 -51.2002s-23.04 -51.2002 -51.2002 -51.2002c-28.1592 0 -51.1992 23.04 -51.1992 51.2002s23.04 51.2002 51.1992 51.2002zM0 448h84.4805l23.0391 -51.2002h378.881c15.3594 0 25.5996 -10.2402 25.5996 -25.5996
c0 -5.12012 0 -7.68066 -5.12012 -12.7998l-92.1602 -166.399c-7.67969 -15.3604 -23.04 -25.5996 -43.5195 -25.5996h-189.44l-23.04 -43.5205v-2.56055c0 -2.56055 2.56055 -5.12012 5.12012 -5.12012h296.96v-51.2002h-307.2c-28.1592 0 -51.1992 23.04 -51.1992 51.2002
c0 7.67969 2.55957 17.9199 5.11914 25.5996l35.8408 61.4404l-92.1602 194.56h-51.2002v51.2002zM409.6 38.4004c28.1602 0 51.2002 -23.04 51.2002 -51.2002s-23.04 -51.2002 -51.2002 -51.2002c-28.1592 0 -51.1992 23.04 -51.1992 51.2002
s23.04 51.2002 51.1992 51.2002z" />
    <glyph glyph-name="uniF113" unicode="&#xf113;" 
d="M409.72 82.0137c26.2393 -13.124 42.5469 -39.5088 42.5469 -68.8467v-25.9668c0 -40.499 -128.384 -51.2002 -196.267 -51.2002s-196.267 10.7012 -196.267 51.2002v27.6309c0 28.1943 15.3682 54.084 40.124 67.5928l76.126 41.5225
c7.24414 3.95996 11.75 11.5371 11.75 19.7979v28.2363c-5.71777 7.48438 -22.0762 30.8057 -29.8926 61.7559c-8.05566 6.45996 -12.7744 16.1455 -12.7744 26.5303v34.1338c0 8.2168 3.07227 16.1787 8.5332 22.3994v45.3887
c-0.477539 4.69336 -2.35449 32.6406 17.8525 55.6885c17.5273 19.9854 45.9688 30.123 84.5479 30.123s67.0205 -10.1377 84.5479 -30.1309c20.207 -23.0488 18.3301 -50.9873 17.8525 -55.6807v-45.3887c5.46094 -6.2207 8.5332 -14.1826 8.5332 -22.3994v-34.1338
c0 -13.4395 -7.81641 -25.3438 -19.8574 -30.8652c-6.16113 -17.9287 -14.6348 -34.5508 -25.207 -49.4844c-2.125 -3.00391 -4.18164 -5.72559 -6.13574 -8.11523v-28.8516c0 -8.60156 4.77832 -16.333 12.4668 -20.1807zM435.2 -12.7998v25.9668
c0 22.8438 -12.6895 43.375 -33.1182 53.5889l-81.5186 40.7559c-13.5088 6.75781 -21.8965 20.335 -21.8965 35.4385v35.2002l2.12402 2.42383c2.14258 2.43164 4.6084 5.61426 7.14258 9.20703c10.3428 14.5918 18.4746 30.9932 24.1836 48.751l1.36523 4.22363
l4.25 1.30566c7.25293 2.23633 12.1338 8.75586 12.1338 16.2051v34.1338c0 4.78711 -2.03027 9.25 -5.7168 12.5781l-2.81641 2.54297l0.0771484 54.2627c0.0166016 0.205078 2.76465 24.2354 -13.8496 43.0166c-14.1572 16.0176 -38.2383 24.1328 -71.5605 24.1328
c-33.4424 0 -57.5742 -8.1748 -71.7139 -24.3027c-16.623 -18.9619 -13.7217 -42.6162 -13.6963 -42.8467l0.0771484 -1.11719v-53.1455l-2.81641 -2.53516c-3.68652 -3.33594 -5.7168 -7.79883 -5.7168 -12.5859v-34.1338c0 -5.76855 2.95215 -11.1191 7.89258 -14.3105
l2.91016 -1.87695l0.776367 -3.37891c7.97852 -34.7393 28.8936 -60.041 29.0986 -60.2881l1.98828 -2.37305v-34.2949c0 -14.498 -7.91016 -27.8359 -20.6504 -34.791l-76.126 -41.5225c-19.2598 -10.4961 -31.2236 -30.6602 -31.2236 -52.5996v-27.6309
c0 -11.5801 63.249 -34.1338 179.2 -34.1338s179.2 22.5537 179.2 34.1338z" />
    <glyph glyph-name="uniF124" unicode="&#xf124;" 
d="M430.644 280.896c7.22168 -7.22168 7.22168 -18.5908 0 -25.8125c-6.97754 -6.97754 -18.5908 -6.97754 -25.5518 0l-130.884 130.883v-431.912c0 -10.0674 -8.00195 -18.0703 -18.0693 -18.0703c-10.0684 0 -18.3311 8.00293 -18.3311 18.0703v431.929
l-130.622 -130.883c-7.22168 -6.97754 -18.8516 -6.97754 -25.8125 0c-7.22168 7.22168 -7.22168 18.5908 0 25.8115l161.867 161.868c6.97754 6.97754 18.5908 6.97754 25.5518 0z" />
    <glyph glyph-name="uniF10E" unicode="&#xf10e;" 
d="M73.1426 82.2861c40.3291 0 73.1436 -32.8145 73.1436 -73.1436s-32.8145 -73.1426 -73.1436 -73.1426s-73.1426 32.8135 -73.1426 73.1426s32.8135 73.1436 73.1426 73.1436zM73.1426 -45.7139c30.2539 0 54.8574 24.6025 54.8574 54.8564
s-24.6035 54.8574 -54.8574 54.8574s-54.8564 -24.6035 -54.8564 -54.8574s24.6025 -54.8564 54.8564 -54.8564zM256 82.2861c40.3291 0 73.1426 -32.8145 73.1426 -73.1436s-32.8135 -73.1426 -73.1426 -73.1426s-73.1426 32.8135 -73.1426 73.1426
s32.8135 73.1436 73.1426 73.1436zM256 -45.7139c30.2539 0 54.8574 24.6025 54.8574 54.8564s-24.6035 54.8574 -54.8574 54.8574s-54.8574 -24.6035 -54.8574 -54.8574s24.6035 -54.8564 54.8574 -54.8564zM438.857 82.2861c40.3291 0 73.1426 -32.8145 73.1426 -73.1436
s-32.8135 -73.1426 -73.1426 -73.1426s-73.1436 32.8135 -73.1436 73.1426s32.8145 73.1436 73.1436 73.1436zM438.857 -45.7139c30.2539 0 54.8564 24.6025 54.8564 54.8564s-24.6025 54.8574 -54.8564 54.8574s-54.8574 -24.6035 -54.8574 -54.8574
s24.6035 -54.8564 54.8574 -54.8564zM73.1426 265.143c40.3291 0 73.1436 -32.8135 73.1436 -73.1426s-32.8145 -73.1426 -73.1436 -73.1426s-73.1426 32.8135 -73.1426 73.1426s32.8135 73.1426 73.1426 73.1426zM73.1426 137.143
c30.2539 0 54.8574 24.6035 54.8574 54.8574s-24.6035 54.8574 -54.8574 54.8574s-54.8564 -24.6035 -54.8564 -54.8574s24.6025 -54.8574 54.8564 -54.8574zM256 265.143c40.3291 0 73.1426 -32.8135 73.1426 -73.1426s-32.8135 -73.1426 -73.1426 -73.1426
s-73.1426 32.8135 -73.1426 73.1426s32.8135 73.1426 73.1426 73.1426zM256 137.143c30.2539 0 54.8574 24.6035 54.8574 54.8574s-24.6035 54.8574 -54.8574 54.8574s-54.8574 -24.6035 -54.8574 -54.8574s24.6035 -54.8574 54.8574 -54.8574zM438.857 265.143
c40.3291 0 73.1426 -32.8135 73.1426 -73.1426s-32.8135 -73.1426 -73.1426 -73.1426s-73.1436 32.8135 -73.1436 73.1426s32.8145 73.1426 73.1436 73.1426zM438.857 137.143c30.2539 0 54.8564 24.6035 54.8564 54.8574s-24.6025 54.8574 -54.8564 54.8574
s-54.8574 -24.6035 -54.8574 -54.8574s24.6035 -54.8574 54.8574 -54.8574zM73.1426 448c40.3291 0 73.1436 -32.8135 73.1436 -73.1426s-32.8145 -73.1436 -73.1436 -73.1436s-73.1426 32.8145 -73.1426 73.1436s32.8135 73.1426 73.1426 73.1426zM73.1426 320
c30.2539 0 54.8574 24.6035 54.8574 54.8574s-24.6035 54.8564 -54.8574 54.8564s-54.8564 -24.6025 -54.8564 -54.8564s24.6025 -54.8574 54.8564 -54.8574zM256 448c40.3291 0 73.1426 -32.8135 73.1426 -73.1426s-32.8135 -73.1436 -73.1426 -73.1436
s-73.1426 32.8145 -73.1426 73.1436s32.8135 73.1426 73.1426 73.1426zM256 320c30.2539 0 54.8574 24.6035 54.8574 54.8574s-24.6035 54.8564 -54.8574 54.8564s-54.8574 -24.6025 -54.8574 -54.8564s24.6035 -54.8574 54.8574 -54.8574zM438.857 301.714
c-40.3291 0 -73.1436 32.8145 -73.1436 73.1436s32.8145 73.1426 73.1436 73.1426s73.1426 -32.8135 73.1426 -73.1426s-32.8135 -73.1436 -73.1426 -73.1436zM438.857 429.714c-30.2539 0 -54.8574 -24.6025 -54.8574 -54.8564s24.6035 -54.8574 54.8574 -54.8574
s54.8564 24.6035 54.8564 54.8574s-24.6025 54.8564 -54.8564 54.8564z" />
    <glyph glyph-name="uniF103" unicode="&#xf103;" 
d="M487.679 11.9199v0h-0.0136719v363.22c0 17.623 -13.8887 32.042 -31.0586 32.042h-294.329c-17.1738 0 -31.0654 -14.4189 -31.0654 -32.042v-315.344v-2.12598c0 -1.41406 -0.0703125 -3.625 -0.22168 -6.15039h0.0224609s-0.914062 -16.8564 -4.43457 -34.6523v0
s-0.0712891 -0.327148 -0.176758 -0.804688c-0.269531 -1.3916 -0.550781 -2.73535 -0.855469 -4.0957c-1.19141 -5.79785 -2.96191 -15.5361 -3.29785 -22.71c0.258789 -3.97168 2.08301 -8.98828 9.92578 -9.11328c10.3857 -0.140625 20.71 -0.203125 29.3926 -0.25
h295.039c17.21 0 31.0732 14.3174 31.0732 32.0264zM107.435 72.0508v0v0l0.00683594 225.575h-0.0478516l0.0166016 4.80957c-0.0400391 8.46777 -4.37695 10.0508 -6.81152 10.293h-0.199219s-0.558594 0 -1.38281 0.015625h-0.0234375v0
c-4.69727 0.0234375 -21.8789 0.129883 -46.4727 0.285156c-28.9941 0.180664 -27.3682 -43.3506 -27.3682 -43.3506s-0.609375 -190.071 -0.671875 -210.648c-0.0664062 -17.9434 3.10254 -32.7998 10.1396 -48.9697
c0.208008 -0.672852 0.375977 -1.32812 0.680664 -2.04785c0.59082 -1.34473 1.19141 -2.42969 1.78906 -3.6416c0.243164 -0.507812 0.395508 -0.984375 0.649414 -1.47754c0.113281 -0.226562 0.265625 -0.405273 0.394531 -0.624023
c3.56738 -6.80762 7.24805 -11.3242 10.6836 -14.5918c2.73535 -2.23535 14.915 -10.4561 38.291 -6.4082c2.12012 0.671875 6.11426 2.6582 8.01367 8.08105c4.81445 12.8721 7.72949 31.1748 7.72949 31.1748l-0.0234375 -0.0166016
c0.335938 1.6582 0.527344 3.15039 0.808594 4.7373c0.628906 5.85254 3.79785 35.6982 3.79785 46.8047zM476.582 430.591v0c19.5996 0 35.4023 -16.1338 35.418 -35.8203v-405.913c0 -18.5596 -13.8955 -33.5811 -31.7295 -35.4482h-393.01
c-34.6025 1.71973 -39.252 5.4541 -39.252 5.4541h0.0234375c-9.69922 3.16504 -21.5352 9.18359 -29.2842 20.5537c-4.80664 7.05762 -8.65527 13.8105 -11.6992 20.499c-6.13867 15.0527 -7.04883 40.2949 -7.04883 40.2949v259.978
c2.77051 14.8252 11.9141 36.4893 42.1514 36.3486c23.582 -0.0898438 42.8301 -0.179688 56.0732 -0.241211h0.0078125c6.0498 -0.0244141 7.30762 6.44238 7.50684 10.498v47.9766c0 19.6865 15.8145 35.8203 35.4141 35.8203h335.429zM193.944 324.564h231.808
s16.2871 1.31348 16.1152 -11.9258c0 -4.85742 -0.375977 -11.9502 -16.6299 -11.9502h-231.285s-12.333 1.71582 -11.9453 11.957c0.167969 5.76465 3.35254 11.9189 11.9375 11.9189v0zM193.944 264.376h231.808s16.2871 1.30078 16.1152 -11.9414
c0 -4.85645 -0.375977 -11.9414 -16.6299 -11.9414h-231.285s-12.333 1.71582 -11.9453 11.9561c0.167969 5.76465 3.35254 11.9268 11.9375 11.9268v0zM191.936 203.915h231.832s16.2871 1.30469 16.0986 -11.9424c0 -4.85254 -0.375 -11.9326 -16.6152 -11.9326h-231.308
s-12.3086 1.70312 -11.9375 11.9482c0.191406 5.75977 3.36035 11.9268 11.9297 11.9268v0zM191.936 145.716h231.832s16.2871 1.29688 16.0986 -11.9414c0 -4.83789 -0.375 -11.9346 -16.6152 -11.9346h-231.308s-12.3086 1.7041 -11.9375 11.9346
c0.191406 5.7666 3.36035 11.9414 11.9297 11.9414v0zM191.936 85.0234h231.832s16.2871 1.29688 16.0986 -11.9424c0 -4.83789 -0.375 -11.9326 -16.6152 -11.9326h-231.308s-12.3086 1.6875 -11.9375 11.9326c0.191406 5.76855 3.36035 11.9424 11.9297 11.9424v0z" />
    <glyph glyph-name="uniF121" unicode="&#xf121;" 
d="M509.867 358.4c2.13281 -2.13379 2.13281 -6.40039 2.13281 -6.40039l-42.667 -170.667c0 -4.26562 -4.26562 -8.5332 -8.5332 -8.5332l-311.467 -42.666c8.53418 -14.9336 25.5996 -23.4668 42.667 -23.4668h243.2c6.39941 0 10.667 -4.2666 10.667 -10.667
s-4.26758 -10.667 -10.667 -10.667h-245.333c-34.1328 0 -66.1328 25.5996 -72.5332 59.7334l-51.2002 260.267h-55.4668c-6.40039 0 -10.667 4.2666 -10.667 10.667s4.2666 10.667 10.666 10.666h64c4.2666 0 10.667 -4.26562 10.667 -8.5332l10.667 -55.4658h405.334
c4.26562 0 6.40039 -2.13379 8.5332 -4.2666zM450.133 192l36.2676 151.467h-386.135l38.4004 -192zM181.333 64c29.8672 0 53.334 -23.4668 53.333 -53.333c0 -29.8662 -23.4658 -53.333 -53.333 -53.333c-29.8662 0 -53.333 23.4658 -53.333 53.333
c0 29.8662 23.4668 53.333 53.333 53.333zM181.333 -21.333c17.0674 0 32 14.9336 32 32s-14.9326 32 -32 32s-32 -14.9336 -32 -32s14.9326 -32 32 -32zM394.667 64c29.8662 0 53.333 -23.4668 53.333 -53.333s-23.4658 -53.333 -53.333 -53.333
c-29.8662 0 -53.333 23.4658 -53.333 53.333c0 29.8662 23.4658 53.333 53.333 53.333zM394.667 -21.333c17.0664 0 32 14.9336 32 32s-14.9326 32 -32 32s-32 -14.9336 -32 -32s14.9326 -32 32 -32z" />
    <glyph glyph-name="uniF14B" unicode="&#xf14b;" 
d="M344.774 366.591l161.812 -161.827c7.21875 -6.95898 7.21875 -18.5684 0 -25.543l-161.812 -161.812c-6.95801 -7.21875 -18.584 -7.21875 -25.8027 0c-6.97559 6.95898 -6.97559 18.584 0 25.8037l130.837 130.593h-431.745
c-10.0645 0 -18.0635 8.25977 -18.0635 18.3242s7.99902 18.0645 18.0635 18.0801h431.745l-130.837 130.838c-6.97559 6.95898 -6.97559 18.5674 0 25.543c7.21875 7.21875 18.8281 7.21875 25.8027 0z" />
    <glyph glyph-name="uniF111" unicode="&#xf111;" 
d="M256 448c141.164 0 256 -114.836 256 -256s-114.836 -256 -256 -256s-256 114.836 -256 256s114.836 256 256 256zM275.692 44.3076v19.6924c0 10.8701 -8.82227 19.6924 -19.6924 19.6924s-19.6924 -8.82227 -19.6924 -19.6924v-19.6924
c0 -10.8701 8.82227 -19.6924 19.6924 -19.6924s19.6924 8.82227 19.6924 19.6924zM303.99 206.109c25.8662 16.6797 41.0488 45.0068 40.6152 75.7666c-0.65918 47.498 -39.8477 86.6855 -87.3447 87.3447c-0.433594 0 -0.857422 0.00976562 -1.28027 0.00976562
c-23.4443 0 -45.4893 -9.03809 -62.1982 -25.5205c-17.0244 -16.7881 -26.3975 -39.1885 -26.3975 -63.0947c0 -10.8701 8.82227 -19.6924 19.6924 -19.6924s19.6924 8.82227 19.6924 19.6924c0 13.2822 5.20801 25.7285 14.6602 35.0625
c9.45312 9.31445 21.8193 14.8184 35.2695 14.1582c25.9443 -0.354492 48.167 -22.5771 48.5215 -48.5215c0.236328 -17.0928 -8.20117 -32.8369 -22.5771 -42.1123c-29.0068 -18.6973 -46.3359 -51.6523 -46.3359 -88.1426v-27.9824
c0 -10.8701 8.82227 -19.6924 19.6924 -19.6924s19.6924 8.82227 19.6924 19.6924v27.9824c0 22.6953 10.8506 43.7861 28.2979 55.0498z" />
    <glyph glyph-name="uniF11C" unicode="&#xf11c;" 
d="M160.348 -33.4385c-3.17578 -3.17578 -7.14453 -4.7627 -11.5107 -4.7627c-4.36523 0 -8.33496 1.58691 -11.5098 4.7627c-6.35059 6.35059 -6.35059 16.6699 0 23.0195l202.419 202.419l-202.419 202.419c-6.35059 6.34961 -6.35059 16.6689 0 23.0195
s16.6699 6.35059 23.0205 0l213.929 -213.929c6.34961 -6.34961 6.34961 -16.6699 0 -23.0195z" />
    <glyph glyph-name="uniF131" unicode="&#xf131;" 
d="M463.008 441.667c4.21191 -4.22168 6.32129 -9.2168 6.32227 -14.998v-255.996c0 -19.1133 -3.71582 -38.0557 -11.1641 -56.835c-7.45508 -18.7783 -16.6758 -35.4473 -27.6748 -50.002c-11.001 -14.5576 -24.1143 -28.7266 -39.3281 -42.5029
c-15.2266 -13.7822 -29.2783 -25.2168 -42.1709 -34.335c-12.8848 -9.11035 -26.334 -17.7246 -40.3252 -25.8271c-14.001 -8.10645 -23.9531 -13.6162 -29.8379 -16.501c-5.88574 -2.89355 -10.6084 -5.11328 -14.1602 -6.66406
c-2.6709 -1.33496 -5.55371 -2.00586 -8.67188 -2.00586c-3.11523 0 -6.00098 0.670898 -8.66992 2.00586c-3.55371 1.55078 -8.27637 3.77051 -14.1641 6.66406c-5.88672 2.88477 -15.834 8.39551 -29.833 16.501c-14 8.10254 -27.4443 16.7168 -40.332 25.8271
c-12.8867 9.11621 -26.9404 20.5508 -42.165 34.335c-15.2217 13.7764 -28.3311 27.9443 -39.332 42.5029c-11.001 14.5547 -20.2246 31.2236 -27.666 50.002c-7.44531 18.7793 -11.165 37.7217 -11.165 56.835v255.996c0 5.77734 2.1123 10.7783 6.33203 14.998
c4.22363 4.22363 9.22363 6.33301 15.0049 6.33301h383.995c5.77734 0 10.7783 -2.10938 15.0059 -6.33301zM405.331 170.673v213.333h-149.333v-378.997c26.4434 13.999 50.1104 29.2256 71 45.667c52.2197 40.8877 78.333 80.8857 78.333 119.997z" />
    <glyph glyph-name="uniF147" unicode="&#xf147;" 
d="M179.775 107.095c-2.22266 0 -4.44434 0.844727 -6.13379 2.54688c-3.3916 3.39062 -3.3916 8.89941 0 12.291l152.438 152.438c3.3916 3.3916 8.88867 3.3916 12.2793 0c3.3916 -3.39062 3.3916 -8.88867 0 -12.2793l-152.449 -152.449
c-1.68945 -1.70215 -3.91211 -2.54688 -6.13379 -2.54688zM332.213 107.095c-2.22168 0 -4.44434 0.844727 -6.13379 2.54688l-152.449 152.438c-3.3916 3.3916 -3.3916 8.88867 0 12.2793c3.39062 3.3916 8.88867 3.3916 12.2793 0l152.438 -152.438
c3.39062 -3.3916 3.39062 -8.90039 0 -12.291c-1.69043 -1.69043 -3.91211 -2.53516 -6.13477 -2.53516zM256 -63.9883c-141.165 0 -256 114.835 -256 255.977c0 141.153 114.835 256 256 256s256 -114.835 256 -256s-114.858 -255.977 -256 -255.977zM256 430.628
c-131.582 0 -238.64 -107.058 -238.64 -238.64s107.058 -238.64 238.64 -238.64s238.64 107.058 238.64 238.64s-107.058 238.64 -238.64 238.64z" />
    <glyph glyph-name="uniF114" unicode="&#xf114;" 
d="M469.453 60.6807c26.2393 -13.124 42.5469 -39.5098 42.5469 -68.8467v-34.501h-375.467h-17.0664h-119.467v32.4014c0 24.7637 13.5078 47.5225 35.251 59.3838l56.7725 35.6094c6.33984 3.46484 9.99219 9.62598 9.99219 16.3408v23.4072
c-6.74121 7.04004 -24.0547 27.0938 -31.0947 53.6318c-7.06641 5.80273 -11.1875 14.3877 -11.1875 23.5947v29.4746c0 6.90332 3.00391 13.8574 8.5332 19.8828v39.0742c0.0507812 1.2373 5.21387 76.7998 93.8672 76.7998c19.5752 0 36.8125 -3.83203 51.4385 -11.3926
c1.24609 11.2988 5.36719 27.0342 17.6133 41.0029c17.5273 19.9854 45.9688 30.123 84.5479 30.123s67.0205 -10.1377 84.5479 -30.1318c20.207 -23.0479 18.3301 -50.9863 17.8525 -55.6797v-45.3887c5.46094 -6.2207 8.5332 -14.1826 8.5332 -22.4004v-34.1328
c0 -13.4404 -7.81641 -25.3447 -19.8574 -30.8652c-6.16113 -17.9287 -14.6348 -34.5518 -25.207 -49.4854c-2.125 -3.00293 -4.18164 -5.72559 -6.13574 -8.11426v-28.8516c0 -8.60156 4.77832 -16.333 12.4668 -20.1816zM119.467 -6.50195
c0 28.1934 15.3682 54.084 40.1152 67.6006l48.0088 26.1885l1.60352 3.37109l3.93457 -0.349609l22.5791 12.3135c7.24414 3.95898 11.75 11.5371 11.75 19.7969v28.2373c-0.162109 0.22168 -0.417969 0.580078 -0.605469 0.827148
c-0.333008 0.452148 -0.674805 0.913086 -1.06738 1.45117c-1.48438 2.02246 -3.27637 4.61621 -5.3418 7.81641c-0.238281 0.367188 -0.477539 0.767578 -0.724609 1.15234c-1.13574 1.79199 -2.30469 3.71973 -3.5332 5.81934
c-0.435547 0.742188 -0.870117 1.51074 -1.31445 2.2959c-0.904297 1.60352 -1.80859 3.25977 -2.73047 5.01758c-0.537109 1.02344 -1.0752 2.03027 -1.6123 3.09766c-0.136719 0.272461 -0.264648 0.571289 -0.401367 0.844727
c-0.853516 1.70605 -1.67285 3.47266 -2.50879 5.29883c-0.22168 0.486328 -0.452148 0.929688 -0.673828 1.4248l-0.478516 1.0752c-0.178711 0.401367 -0.332031 0.844727 -0.511719 1.25488c-0.733398 1.70605 -1.43359 3.42969 -2.13379 5.21387
c-0.272461 0.691406 -0.5625 1.32227 -0.827148 2.02246c-0.623047 1.68066 -1.16016 3.22559 -1.67285 4.71875c-0.306641 0.904297 -0.59668 1.81738 -0.895508 2.73926c-0.12793 0.392578 -0.273438 0.792969 -0.392578 1.18555l-0.691406 2.22754
c-0.580078 1.90332 -1.11816 3.84863 -1.62988 5.80273c-0.0429688 0.15332 -0.09375 0.298828 -0.136719 0.460938c-4.01074 3.2168 -7.19336 7.24512 -9.37793 11.75c-0.00878906 0.0175781 -0.0166016 0.0263672 -0.0253906 0.0429688
c-0.657227 1.35645 -1.0332 2.83301 -1.50195 4.2666c-0.31543 0.956055 -0.776367 1.86035 -1.00684 2.85059c-0.563477 2.47461 -0.862305 5.02539 -0.862305 7.62012v34.1328c0 8.21777 3.07227 16.1797 8.5332 22.4004v40.3711
c-13.585 9.30957 -30.7793 14.0283 -51.1992 14.0283c-72.2178 0 -76.6641 -57.7783 -76.8174 -60.2275l0.0166016 -45.9092l-2.80762 -2.53516c-3.63477 -3.29395 -5.72559 -6.94629 -5.72559 -10.0176v-29.4746c0 -4.58203 2.34668 -8.83984 6.27246 -11.3828
l2.91797 -1.87793l0.776367 -3.37891c6.69922 -29.1924 29.3721 -50.6113 29.5938 -50.8164l2.71387 -2.53418v-30.6436c0 -12.9707 -7.06543 -24.8652 -18.4404 -31.0693l-56.7637 -35.6094c-16.7002 -9.12207 -26.8037 -26.1377 -26.8037 -44.6553v-15.334h102.4v19.0977z
M494.934 -25.5996v17.4336c0 22.8438 -12.6895 43.375 -33.1182 53.5889l-81.5186 40.7549c-13.5088 6.75879 -21.8965 20.335 -21.8965 35.4395v35.2002l2.12402 2.42285c2.14258 2.43262 4.6084 5.61523 7.14258 9.20801c10.3428 14.5918 18.4746 30.9932 24.1836 48.751
l1.36523 4.22363l4.25 1.30566c7.25293 2.23535 12.1338 8.75488 12.1338 16.2051v34.1328c0 4.78711 -2.03027 9.25 -5.7168 12.5781l-2.81641 2.54297l0.0771484 54.2637c0.0166016 0.205078 2.76465 24.2344 -13.8496 43.0166
c-14.1572 16.0166 -38.2383 24.1318 -71.5605 24.1318c-33.4424 0 -57.5742 -8.1748 -71.7139 -24.3115c-13.7734 -15.709 -14.1396 -34.5938 -13.8496 -40.7549l0.230469 -0.178711v-3.02148v-53.1455l-2.81641 -2.53418
c-3.68652 -3.33691 -5.71777 -7.7998 -5.71777 -12.5869v-34.1328c0 -5.76855 2.95312 -11.1191 7.90234 -14.3105l2.91016 -1.87793l0.776367 -3.37891c0.648438 -2.83301 1.41602 -5.58887 2.21875 -8.28613c0.0507812 -0.178711 0.110352 -0.349609 0.162109 -0.520508
l0.46875 -1.51855c0.785156 -2.5 1.60449 -4.92383 2.47461 -7.24512c0.478516 -1.28809 0.930664 -2.41504 1.37402 -3.53223c0.170898 -0.426758 0.341797 -0.862305 0.512695 -1.28027c0.477539 -1.15234 0.947266 -2.26953 1.41602 -3.33691v0
c0.145508 -0.332031 0.298828 -0.65625 0.443359 -0.989258v0c1.05859 -2.38086 2.14258 -4.66797 3.22656 -6.84375c0 -0.00878906 0.0078125 -0.0175781 0.0078125 -0.0175781c2.04004 -4.05273 4.08789 -7.71387 6.0166 -10.9482
c0.0683594 -0.119141 0.135742 -0.230469 0.204102 -0.34082c0.905273 -1.51074 1.79199 -2.93555 2.62891 -4.24121c0.0419922 -0.0595703 0.0761719 -0.12793 0.119141 -0.1875c1.77539 -2.76465 3.37109 -5.06055 4.64258 -6.82715
c0.0078125 -0.0166016 0.0166016 -0.0253906 0.0253906 -0.0419922c0.605469 -0.845703 1.13477 -1.55371 1.58691 -2.14258c0.0595703 -0.0683594 0.111328 -0.136719 0.162109 -0.204102c0.862305 -1.12695 1.39062 -1.7666 1.4082 -1.79199l0.324219 -0.384766
l1.65527 -1.97949v-0.00878906v-34.2861c0 -14.499 -7.91016 -27.8359 -20.6504 -34.791l-76.126 -41.5234c-19.2598 -10.4961 -31.2236 -30.6602 -31.2236 -52.5986v-19.0977h358.4z" />
    <glyph glyph-name="uniF110" unicode="&#xf110;" 
d="M511.551 250.246c1.08203 -3.30859 0.183594 -6.94727 -2.30957 -9.39453l-119.974 -116.949l28.3184 -165.119c0.595703 -3.43652 -0.81543 -6.91016 -3.63867 -8.96289c-1.60352 -1.16406 -3.49121 -1.75098 -5.38867 -1.75098
c-1.45703 0 -2.93262 0.348633 -4.27051 1.05469l-148.283 77.9541l-148.302 -77.9541c-3.07031 -1.64062 -6.81934 -1.375 -9.65039 0.696289c-2.81445 2.05273 -4.22559 5.52637 -3.63867 8.96289l28.3281 165.128l-119.975 116.94
c-2.50195 2.42871 -3.39062 6.07617 -2.31836 9.38477c1.09082 3.32715 3.9502 5.7373 7.40527 6.24121l165.788 24.0938l74.1504 150.236c1.53027 3.13379 4.72949 5.11328 8.21191 5.11328s6.67188 -1.97949 8.21094 -5.11328l74.1416 -150.227l165.788 -24.0938
c3.45508 -0.504883 6.32422 -2.92383 7.40527 -6.24121z" />
    <glyph glyph-name="uniF14A" unicode="&#xf14a;" 
d="M441.617 261.526l70.3916 -70.374l-68.6787 -68.6787c-51.417 -51.416 -118.937 -77.1201 -186.474 -77.1201s-135.066 25.7129 -186.474 77.1201l-70.3828 70.3828l68.6787 68.6699c102.824 102.824 270.115 102.824 372.938 0zM431.092 134.703l56.4502 56.4492
l-58.1543 58.1533c-96.0771 96.0693 -252.401 96.0693 -348.479 0l-56.4502 -56.4492l58.1543 -58.1533c96.0771 -96.0693 252.401 -96.0693 348.479 0zM247.109 261.448c4.78223 0 8.64844 -3.87402 8.64844 -8.64844c0 -4.77344 -3.875 -8.64844 -8.64844 -8.64844
c-23.8447 0 -43.2432 -19.3994 -43.2432 -43.2432c0 -4.77441 -3.875 -8.64844 -8.64844 -8.64844c-4.77441 0 -8.64941 3.87402 -8.64941 8.64844c0 33.3838 27.1572 60.54 60.541 60.54zM255.758 304.691c62.002 0 112.433 -50.4385 112.433 -112.432
c0 -61.9941 -50.4395 -112.433 -112.433 -112.433s-112.433 50.4385 -112.433 112.433c0 61.9932 50.4395 112.432 112.433 112.432zM255.758 97.124c52.4629 0 95.1348 42.6816 95.1348 95.1357s-42.6807 95.1348 -95.1348 95.1348s-95.1348 -42.6807 -95.1348 -95.1348
s42.6807 -95.1357 95.1348 -95.1357z" />
    <glyph glyph-name="uniF11E" unicode="&#xf11e;" 
d="M374.534 448c75.832 0 137.466 -61.6338 137.466 -137.466s-61.6338 -137.466 -137.466 -137.466h-237.068c-54.9023 0 -99.6025 -44.7002 -99.6025 -99.6025s44.7002 -99.6025 99.6025 -99.6025s99.6025 44.7002 99.6025 99.6025v37.7588
c0 10.4121 8.51953 18.9316 18.9316 18.9316s18.9316 -8.51953 18.9316 -18.9316v-37.7588c0 -75.832 -61.6338 -137.466 -137.466 -137.466s-137.466 61.6338 -137.466 137.466s61.6338 137.466 137.466 137.466h237.068c54.9023 0 99.6025 44.7002 99.6025 99.6025
s-44.7002 99.6025 -99.6025 99.6025s-99.6025 -44.7002 -99.6025 -99.6025v-38.1797c0 -10.4121 -8.51953 -18.9316 -18.9316 -18.9316s-18.9316 8.51953 -18.9316 18.9316v38.1797c0 75.832 61.6338 137.466 137.466 137.466z" />
    <glyph glyph-name="uniF12B" unicode="&#xf12b;" 
d="M65.7168 448h380.566c36.1416 0 65.7119 -26.7578 65.7119 -65.7119v-380.576c0 -38.9541 -29.5703 -65.7119 -65.7119 -65.7119h-380.566c-36.1514 0 -65.7168 26.7578 -65.7168 65.7119v380.576c0 38.9541 29.5654 65.7119 65.7168 65.7119v0zM372.97 391.114
c-12.6797 0 -23.041 -10.3662 -23.041 -23.0518v-55.1709c0 -12.6797 10.3613 -23.0518 23.041 -23.0518h57.8682c12.6797 0 23.0518 10.3721 23.0518 23.0518v55.1709c0 12.6855 -10.3721 23.0518 -23.0518 23.0518h-57.8682v0zM454.132 231.477h-45.0625
c4.2627 -13.9199 6.57129 -28.666 6.57129 -43.9209c0 -85.1631 -71.2637 -154.197 -159.154 -154.197c-87.8857 0 -159.139 69.0342 -159.139 154.197c0 15.2656 2.30273 30.0059 6.57129 43.9209h-47.0234v-216.275c0 -11.1924 9.1582 -20.3545 20.3555 -20.3545h356.536
c11.1973 0 20.3545 9.15723 20.3545 20.3545v216.275h-0.00976562zM256.481 292.747c-56.7861 0 -102.826 -44.6055 -102.826 -99.6348c0 -55.0303 46.04 -99.6357 102.826 -99.6357c56.79 0 102.836 44.6055 102.836 99.6357c0 55.0293 -46.04 99.6348 -102.836 99.6348z
" />
    <glyph glyph-name="uniF12A" unicode="&#xf12a;" 
d="M375.467 140.8c34.1328 34.1328 136.533 -68.2666 136.533 -102.399c0 -34.1338 -102.4 -102.4 -102.4 -102.4c-68.2666 0 -206.667 70.1328 -273.066 136.533s-136.533 204.8 -136.533 273.066c0 0 68.2666 102.4 102.4 102.4
c34.1328 0 136.533 -102.399 102.399 -136.533s-68.2666 -34.1338 -68.2666 -68.2666s34.1338 -68.2666 68.2666 -102.4c34.1328 -34.1328 68.2676 -68.2656 102.4 -68.2656s34.1328 34.1328 68.2666 68.2656z" />
    <glyph glyph-name="uniF142" unicode="&#xf142;" 
d="M383.979 447.894c5.75781 -0.0107422 10.4238 -4.68164 10.4238 -10.4395v-78.1611c0 -5.7627 -4.6709 -10.4395 -10.4346 -10.4395l-44.7256 -0.015625c-30.835 0 -36.4756 -12.0166 -36.4756 -35.6875v-49.249h78.0801c2.76953 0 5.43262 -1.10254 7.3877 -3.0625
s3.05762 -4.6123 3.05762 -7.38184l-0.0322266 -84.1748c0 -5.76855 -4.6709 -10.4395 -10.4395 -10.4395h-78.0537v-212.397c0 -5.76367 -4.67188 -10.4404 -10.4404 -10.4404h-87.0977c-5.76855 0 -10.4404 4.67188 -10.4404 10.4404v212.397h-66.7559
c-5.76367 0 -10.4404 4.6709 -10.4404 10.4395v84.1748c0 5.76855 4.67188 10.4443 10.4404 10.4443h66.7559v58.0957c0 76.5469 48.2051 126.003 122.796 126.003z" />
    <glyph glyph-name="uniF117" unicode="&#xf117;" 
d="M103.441 -51.9121c-1.89746 0 -3.79492 0.586914 -5.38867 1.75098c-2.82324 2.05273 -4.23438 5.52637 -3.63867 8.96289l28.3281 165.128l-119.975 116.932c-2.49219 2.4375 -3.39062 6.07617 -2.31836 9.38477c1.08105 3.31738 3.9502 5.73633 7.40527 6.24121
l165.788 24.0938l74.1504 150.235c1.54004 3.13379 4.72949 5.11426 8.21191 5.11426v0c3.49121 0 6.68066 -1.98047 8.21094 -5.11426l74.1416 -150.235l165.798 -24.0938c3.45508 -0.504883 6.31445 -2.91504 7.40527 -6.24121
c1.07227 -3.30859 0.182617 -6.95605 -2.31934 -9.38477l-119.974 -116.95l28.3184 -165.119c0.586914 -3.43652 -0.824219 -6.91016 -3.63867 -8.96289c-2.82227 -2.07129 -6.57031 -2.33691 -9.65918 -0.696289l-148.283 77.9541l-148.302 -77.9541
c-1.33887 -0.696289 -2.80469 -1.04492 -4.26172 -1.04492zM28.8594 241.026l110.122 -107.346c2.15332 -2.09863 3.14355 -5.14062 2.62988 -8.11035l-26 -151.564l136.132 71.5576c2.66699 1.41113 5.84668 1.41113 8.53223 0l136.113 -71.5576l-25.9912 151.564
c-0.513672 2.96973 0.476562 6.00293 2.62988 8.11035l110.122 107.346l-152.178 22.1143c-2.98828 0.430664 -5.56348 2.30957 -6.90137 5.0127l-68.0654 137.891l-68.0664 -137.899c-1.33789 -2.7041 -3.91309 -4.58301 -6.90039 -5.01367z" />
    <glyph glyph-name="uniF116" unicode="&#xf116;" 
d="M499.801 -47.6348c3.69238 -3.84668 3.57617 -9.96582 -0.270508 -13.668c-1.875 -1.79785 -4.28223 -2.69727 -6.69922 -2.69727c-2.54199 0 -5.0752 0.986328 -6.96973 2.96777l-143.983 149.745c-35.1475 -29.1445 -80.2422 -46.709 -129.378 -46.709
c-111.938 0 -202.998 91.0586 -202.998 202.998c0 111.938 91.0596 202.998 202.998 202.998c111.939 0 202.999 -91.0596 202.999 -202.998c0 -55.8633 -22.6973 -106.517 -59.334 -143.259zM212.5 61.3369c101.268 0 183.665 82.3887 183.665 183.665
s-82.3877 183.665 -183.665 183.665c-101.276 0 -183.665 -82.3887 -183.665 -183.665s82.3887 -183.665 183.665 -183.665z" />
    <glyph glyph-name="uniF10C" unicode="&#xf10c;" 
d="M443.699 315.985l-197.39 -197.61l-64.6777 63.2158l198.103 198.347zM434.798 434.759c17.6592 17.6484 46.3047 17.6602 63.9648 0.000976562c17.6631 -17.6641 17.6318 -46.2881 0 -63.9521l-32.7793 -32.7881l-63.9648 63.9531zM116.722 52.7031l45.5674 108.126
l63.5605 -62.1211zM447.302 260.229v-324.229h-447.3v447.299h321.838l-57.0898 -60.3027h-204.986v-324.51h325.845v200.919z" />
    <glyph glyph-name="uniF14D" unicode="&#xf14d;" 
d="M511.512 324.855c1.08496 -3.97754 0.361328 -7.77441 -2.16992 -11.3906c-2.5293 -3.61621 -5.9668 -5.78613 -10.3057 -6.50879c-61.8379 -8.67871 -93.1172 -37.6084 -93.8408 -86.7891h55.8701c3.97754 0 7.41309 -1.44629 10.3066 -4.33984
c2.89258 -2.89258 4.33887 -6.32812 4.33887 -10.3057v-209.376c0 -4.33984 -1.44629 -7.95898 -4.33887 -10.8486c-2.89355 -2.89551 -6.3291 -4.33984 -10.3066 -4.33984h-175.205c-3.97754 0 -7.50586 1.44727 -10.5801 4.33984
c-3.07324 2.8916 -4.61035 6.50879 -4.61035 10.8486v181.169c0 71.6006 17.5391 126.208 52.6162 163.813c35.0771 37.6084 87.875 58.2207 158.39 61.8369c3.61621 0.361328 6.87012 -0.541992 9.76367 -2.71191c2.89551 -2.16992 4.70312 -5.0625 5.42383 -8.67871
l14.6484 -66.7188v0zM240.839 324.855c1.08496 -3.97754 0.361328 -7.77441 -2.16992 -11.3906c-2.89258 -3.97754 -6.32812 -6.14746 -10.3057 -6.50879c-61.8369 -8.67871 -93.1172 -37.6084 -93.8408 -86.7891h55.8701c3.97852 0 7.41406 -1.44629 10.3066 -4.33984
c2.89258 -2.89258 4.33984 -6.32812 4.33984 -10.3057v-209.376c0 -4.33984 -1.44727 -7.95898 -4.33984 -10.8486c-2.89258 -2.89551 -6.32812 -4.33984 -10.3066 -4.33984h-175.204c-3.97852 0 -7.50391 1.44727 -10.5781 4.33984
c-3.07324 2.89258 -4.61035 6.50879 -4.61035 10.8486v181.169c0 71.6006 17.5391 126.208 52.6162 163.813c35.0771 37.6084 87.873 58.2207 158.389 61.8369c3.61621 0.361328 6.87109 -0.541992 9.76465 -2.71191c2.89258 -2.16992 4.7002 -5.0625 5.42383 -8.67871z" />
    <glyph glyph-name="uniF102" unicode="&#xf102;" 
d="M460.8 448c28.1602 0 51.2002 -23.04 51.2002 -51.2002v-409.6c0 -28.1602 -23.04 -51.2002 -51.2002 -51.2002h-384c-43.5195 0 -76.7998 35.8398 -76.7998 76.7998v230.4c0 15.3594 10.2402 25.5996 25.5996 25.5996c15.3604 0 25.6006 -10.2402 25.6006 -25.5996
v-230.4c0 -15.3594 10.2402 -25.5996 25.5996 -25.5996c15.3604 0 25.6006 10.2402 25.6006 25.5996v281.601v102.399c0 28.1602 23.04 51.2002 51.1992 51.2002h307.2zM153.6 396.8v-102.399h128v102.399h-128zM307.2 -12.7998c12.7998 0 25.5996 12.7998 25.5996 25.5996
c0 15.3604 -10.2402 25.6006 -25.5996 25.6006h-128c-15.3604 0 -25.6006 -10.2402 -25.6006 -25.6006c0 -15.3594 10.2402 -25.5996 25.6006 -25.5996h128zM435.2 89.5996c12.7998 0 25.5996 12.8008 25.5996 25.6006c0 15.3594 -10.2402 25.5996 -25.5996 25.5996h-256
c-15.3604 0 -25.6006 -10.2402 -25.6006 -25.5996c0 -15.3604 10.2402 -25.6006 25.6006 -25.6006h256zM435.2 192c12.7998 0 25.5996 12.7998 25.5996 25.5996c0 15.3604 -10.2402 25.6006 -25.5996 25.6006h-256c-15.3604 0 -25.6006 -10.2402 -25.6006 -25.6006
c0 -15.3594 10.2402 -25.5996 25.6006 -25.5996h256zM460.8 294.4v102.399h-128v-102.399h128z" />
    <glyph glyph-name="uniF12D" unicode="&#xf12d;" 
d="M290.126 -64c-47.0459 0 -85.3311 38.2686 -85.3311 85.3311v273.07c-0.0625 13.6494 5.23438 26.5479 14.916 36.2822c19.3369 19.4336 53.2324 19.4336 72.5693 0c9.68164 -9.73438 14.9824 -22.6328 14.918 -36.3691v-238.844
c0 -9.43945 -7.63672 -17.0723 -17.0723 -17.0723c-9.42871 0 -17.0615 7.63281 -17.0615 17.0723v238.931c0.015625 4.64844 -1.75488 8.94727 -4.96875 12.1992c-6.4668 6.46777 -17.7324 6.46777 -24.1992 0c-3.2168 -3.25195 -4.98242 -7.5498 -4.9668 -12.1182
v-273.151c0 -28.2363 22.9668 -51.2021 51.1963 -51.2021c28.2354 0 51.2012 22.9658 51.2012 51.2021v307.201c0 47.0498 -38.2793 85.333 -85.3301 85.333c-47.0518 0 -85.3369 -38.2852 -85.3369 -85.333v-238.934c0 -9.43359 -7.63184 -17.0664 -17.0645 -17.0664
s-17.0645 7.63281 -17.0645 17.0664v238.934c0.000976562 65.8652 53.5977 119.468 119.467 119.468c65.8682 0 119.471 -53.6025 119.471 -119.468v-307.201c-0.000976562 -47.0625 -38.2695 -85.3311 -85.3428 -85.3311z" />
    <glyph glyph-name="uniF130" unicode="&#xf130;" 
d="M256 448c141.158 0 256 -114.842 256 -256s-114.842 -256 -256 -256s-256 114.842 -256 256s114.842 256 256 256zM256 -46.9336c131.746 0 238.934 107.188 238.934 238.934s-107.188 238.934 -238.934 238.934s-238.934 -107.188 -238.934 -238.934
s107.188 -238.934 238.934 -238.934z" />
    <glyph glyph-name="uniF10A" unicode="&#xf10a;" 
d="M479.168 334.773c0.545898 -1.30078 0.829102 -2.69629 0.833008 -4.10645v-320c0 -5.89062 -4.77637 -10.667 -10.667 -10.667h-117.333v-53.333c0 -5.89062 -4.77637 -10.667 -10.667 -10.667h-298.667c-5.89062 0 -10.667 4.77637 -10.667 10.666v426.667
c0 5.89062 4.77637 10.667 10.667 10.667h117.333v53.333c0 5.89062 4.77637 10.667 10.666 10.667h192c2.82422 -0.0107422 5.5293 -1.13379 7.53125 -3.125l106.667 -106.667c0.984375 -0.984375 1.7666 -2.15137 2.30371 -3.43457zM373.333 411.584v-70.251h70.251z
M330.667 -42.667v298.667h-96c-5.89062 0 -10.667 4.77637 -10.667 10.667v96h-170.667v-405.334h277.334zM245.333 277.333h70.251l-70.251 70.251v-70.251zM458.667 21.333v298.667h-96c-5.89062 0 -10.667 4.77637 -10.667 10.667v96h-170.666v-42.667h53.333
c2.82715 -0.0078125 5.53613 -1.13086 7.54102 -3.125l106.667 -106.667c1.99316 -2.00391 3.11621 -4.71387 3.125 -7.54102v-245.334h106.667z" />
    <glyph glyph-name="uniF13D" unicode="&#xf13d;" 
d="M147.27 224.84c-61.6309 0 -111.585 49.9434 -111.585 111.575c0 61.6309 49.9648 111.585 111.585 111.585h216.465c61.6309 0 111.596 -49.9434 111.596 -111.574c0 -61.6318 -49.9648 -111.586 -111.585 -111.586h-216.476zM147.27 407.623
c-39.3271 0 -71.208 -31.8809 -71.208 -71.208s31.8809 -71.209 71.208 -71.209s71.209 31.8818 71.209 71.209s-31.8818 71.208 -71.209 71.208zM364.73 159.171c61.6309 0 111.585 -49.9541 111.585 -111.586c0 -61.6309 -49.9648 -111.585 -111.585 -111.585h-216.465
c-61.6309 0 -111.585 49.9541 -111.585 111.585c0 61.6318 49.9648 111.586 111.585 111.586h216.465zM364.73 -23.6123c39.3271 0 71.208 31.9023 71.208 71.208s-31.9023 71.209 -71.208 71.209s-71.1982 -31.9033 -71.1982 -71.209s31.8711 -71.208 71.1982 -71.208z" />
    <glyph glyph-name="uniF118" unicode="&#xf118;" 
d="M320 448l128 -128v-384h-384v512h256zM416 -32v320h-128v128h-192v-448h320zM320 320h96l-96 96v-96zM160 256l192 -96l-192 -96v192z" />
    <glyph glyph-name="uniF115" unicode="&#xf115;" 
d="M73.1426 82.2861c40.3291 0 73.1436 -32.8145 73.1436 -73.1436s-32.8145 -73.1426 -73.1436 -73.1426s-73.1426 32.8135 -73.1426 73.1426s32.8135 73.1436 73.1426 73.1436zM256 82.2861c40.3291 0 73.1426 -32.8145 73.1426 -73.1436
s-32.8135 -73.1426 -73.1426 -73.1426s-73.1426 32.8135 -73.1426 73.1426s32.8135 73.1436 73.1426 73.1436zM438.857 82.2861c40.3291 0 73.1426 -32.8145 73.1426 -73.1436s-32.8135 -73.1426 -73.1426 -73.1426s-73.1436 32.8135 -73.1436 73.1426
s32.8145 73.1436 73.1436 73.1436zM73.1426 265.143c40.3291 0 73.1436 -32.8135 73.1436 -73.1426s-32.8145 -73.1426 -73.1436 -73.1426s-73.1426 32.8135 -73.1426 73.1426s32.8135 73.1426 73.1426 73.1426zM256 265.143c40.3291 0 73.1426 -32.8135 73.1426 -73.1426
s-32.8135 -73.1426 -73.1426 -73.1426s-73.1426 32.8135 -73.1426 73.1426s32.8135 73.1426 73.1426 73.1426zM438.857 265.143c40.3291 0 73.1426 -32.8135 73.1426 -73.1426s-32.8135 -73.1426 -73.1426 -73.1426s-73.1436 32.8135 -73.1436 73.1426
s32.8145 73.1426 73.1436 73.1426zM73.1426 448c40.3291 0 73.1436 -32.8135 73.1436 -73.1426s-32.8145 -73.1436 -73.1436 -73.1436s-73.1426 32.8145 -73.1426 73.1436s32.8135 73.1426 73.1426 73.1426zM256 448c40.3291 0 73.1426 -32.8135 73.1426 -73.1426
s-32.8135 -73.1436 -73.1426 -73.1436s-73.1426 32.8145 -73.1426 73.1436s32.8135 73.1426 73.1426 73.1426zM438.857 301.714c-40.3291 0 -73.1436 32.8145 -73.1436 73.1436s32.8145 73.1426 73.1436 73.1426s73.1426 -32.8135 73.1426 -73.1426
s-32.8135 -73.1436 -73.1426 -73.1436z" />
    <glyph glyph-name="uniF13B" unicode="&#xf13b;" 
d="M445.456 -41.04h-378.912c-36.6875 0 -66.5439 29.8564 -66.5439 66.5439v236.528c0 21.4873 17.4883 38.9756 38.9756 38.9756l39.04 -0.0322266h0.0644531v85.0889c0 21.4873 17.4883 38.9756 38.9756 38.9756l355.984 -0.0322266
c21.4883 -0.015625 38.96 -17.5039 38.96 -38.9756v-360.528c0 -36.6875 -29.8564 -66.5439 -66.5439 -66.5439zM38.9756 269.008c-2.51172 0 -4.17578 -1.28027 -4.94336 -2.04785c-0.751953 -0.767578 -2.03223 -2.41602 -2.03223 -4.92773v-236.528
c0 -19.04 15.4883 -34.5439 34.5439 -34.5439h378.928c19.04 0 34.5439 15.4883 34.5439 34.5439v360.528c0 3.83984 -3.13574 6.97559 -6.97559 6.97559l-355.984 0.0322266c-3.83984 0 -6.97559 -3.13574 -6.97559 -6.97559l0.015625 -325.009
c0 -13.2637 -10.7842 -24.0479 -24.0479 -24.0479c-13.2803 0.0478516 -24.0322 10.832 -24.0322 24.0479v207.937zM421.984 299.936v0l-204.816 0.0644531c-8.83203 0 -16 7.16797 -16 16s7.16797 16 16 16v0l204.8 -0.0644531c8.83203 0 16 -7.16797 16 -16
c0.0166016 -8.83203 -7.15137 -16 -15.9834 -16zM421.952 222.816h-255.952c-8.83203 0 -16 7.16797 -16 16s7.16797 16 16 16h255.952c8.83203 0 16 -7.16797 16 -16s-7.16797 -16 -16 -16zM421.952 145.68h-255.968c-8.83203 0 -16 7.16797 -16 16s7.16797 16 16 16
h255.983c8.83203 0 16 -7.16797 16 -16s-7.18359 -16 -16.0156 -16zM421.984 68.5439h-256c-8.83203 0 -16 7.16797 -16 16s7.16797 16 16 16h256c8.83203 0 16 -7.16797 16 -16s-7.16797 -16 -16 -16z" />
    <glyph glyph-name="uniF126" unicode="&#xf126;" 
d="M503.152 313.027c8.92188 -38.7773 8.84766 -81.1055 8.84766 -121.03c0 -39.9189 -0.03125 -82.2422 -8.95801 -121.02c-6.26855 -27.2285 -28.5459 -47.3174 -55.3408 -50.3145c-63.4805 -7.09277 -127.732 -7.12988 -191.72 -7.09277
c-63.9766 -0.0371094 -128.244 0 -191.729 7.09277c-26.8115 3.00195 -49.0732 23.0908 -55.3311 50.3145c-8.9209 38.7725 -8.9209 81.0957 -8.9209 121.02c0 39.9248 0.100586 82.2529 9.02148 121.03c6.26855 27.2295 28.5244 47.3184 55.3203 50.3154
c63.4902 7.08691 127.764 7.12402 191.74 7.08691c63.9658 0.0371094 128.229 0 191.719 -7.08691c26.8115 -2.99707 49.084 -23.0859 55.3516 -50.3154zM189.928 112.529c54.4053 28.2129 108.335 56.166 162.772 84.3994
c-54.6064 28.4863 -108.51 56.6094 -162.772 84.9219v-169.321z" />
  </font>
</defs>
</svg>
